Воллес і Громіт та прокляття кролика-перевертня / Wallace & Gromit in The Curse of the Were-Rabbit (2005) 1080p 2xUkr/Eng | Sub Eng

Нові коментарі

Нова тема   Відповісти
Автор Повідомлення
Anonymous 







2017-07-30 11:58  
Воллес і Громіт та прокляття кролика-перевертня / Wallace & Gromit in The Curse of the Were-Rabbit (2005) 1080p 2xUkr/Eng | Sub Eng

Воллес і Громіт та прокляття кролика-перевертня / Wallace & Gromit in The Curse of the Were-Rabbit (2005) 1080p 2xUkr/Eng | Sub Eng
Альтернативні постери:






повнорозмірні зображення відкриються по кліку (з натиснутим CTRL чи кліком середньою кнопкою мишки - у новій вкладці)


Жанр: анімація, фантастика, комедія, детектив, сімейний, пригодницький
Країна: Велика Британія

Оскар за найкращий анімаційний фільм та премія BAFTA за найкращий британський фільм



Кінокомпанія: Aardman Animations, DreamWorks Animation
Режисер: Стів Бокс / Steve Box, Нік Парк / Nick Park
Ролі озвучують: Пітер Салліс / Peter Sallis, Ральф Файнс / Ralph Fiennes, Хелена Бонем Картер / Helena Bonham Carter, Пітер Кей / Peter Kay, Ніколас Сміт / Nicholas Smith, Ліз Сміт / Liz Smith, Джон Томсон / John Thomson, Марк Гетіс / Mark Gatiss, Вінсент Ебрахім / Vincent Ebrahim, Джеральдін МакЕван / Geraldine McEwan та інші

Сюжет:
Щорічний конкурс гігантських овочів наближається, і "овочеманія" охопила всіх сусідів Воллеса і Громіта. Два кмітливих друга вирішили заробити грошей на боротьбі з гризунами, скориставшись своїм винаходом "Анти-Гриз". Але раптово величезна таємнича тварина початок тероризувати округу, знищуючи овочі, які могли претендувати на головний приз конкурсу. У відчаї, намагаючись врятувати захід, його організатор леді Тоттінгтон обіцяє велику винагороду тому, хто зловить звіра і врятує свято.


Рейтинг MPAA: G - нема вікових обмежень
Вікова категорія: 6+

Тривалість: 01:21:06
Якість: 1080p [Amazon]
Відео:
кодек:
розмір кадру: 1920 х 1080
бітрейт: 11,6 Мб/с

Аудіо # 1:
мова: українська
переклад: багатоголосий закадровий
кодек: 5.1
бітрейт: 348 кб/с

Аудіо # 2:
мова: українська
переклад: багатоголосий закадровий
кодек: 2.0
бітрейт: 192 кб/с

Аудіо # 3:
мова: англійська
переклад: оригінал
кодек: 5.1
бітрейт: 640 кб/с

Аудіо # 4:
мова: англійська
переклад: коментарі режисерів
кодек: 2.0
бітрейт: 160 кб/с

Субтитри # 1-3:
мова: англійська (повні; SDH; на коментарі режисерів)
тип: програмні (м'які)
формат: *.srt
Info
Код:
Format                      :
Format version              : Version 4 / Version 2
File size                   : 7.35 GiB
Duration                    : 1 h 21 min
Overall bit rate mode       : Variable
Overall bit rate            : 13.0 Mb/s
Cover                       : Yes
Attachments                 : cover.jpg

Video
ID                          : 1
Format                      : AVC
Format/Info                 : Advanced Video Codec
Format profile              : [email protected]
Format settings, CABAC      : Yes
Format settings, RefFrames  : 4 frames
Codec ID                    : V_MPEG4/ISO/AVC
Duration                    : 1 h 21 min
Bit rate mode               : Variable
Bit rate                    : 11.6 Mb/s
Maximum bit rate            : 15.0 Mb/s
Width                       : 1 920 pixels
Height                      : 1 080 pixels
Display aspect ratio        : 16:9
Frame rate mode             : Constant
Frame rate                  : 25.000 FPS
Original frame rate         : 23.976 (24000/1001) FPS
Color space                 : YUV
Chroma subsampling          : 4:2:0
Bit depth                   : 8 bits
Scan type                   : Progressive
Bits/(Pixel*Frame)          : 0.224
Stream size                 : 6.57 GiB (89%)
Title                       : Воллес і Громіт та прокляття кролика-перевертня / Wallace & Gromit in The Curse of the Were-Rabbit (2005) 1080p [Amazon, HDClub]
Language                    : English
Default                     : Yes
Forced                      : Yes
Color range                 : Limited
Color primaries             : BT.709
Transfer characteristics    : BT.709
Matrix coefficients         : BT.709

Audio #1
ID                          : 2
Format                      : AC-3
Format/Info                 : Audio Coding 3
Format settings, Endianness : Big
Codec ID                    : A_AC3
Duration                    : 1 h 21 min
Bit rate mode               : Constant
Bit rate                    : 384 kb/s
Channel(s)                  : 6 channels
Channel positions           : Front: L C R, Side: L R, LFE
Sampling rate               : 48.0 kHz
Frame rate                  : 31.250 FPS (1536 SPF)
Bit depth                   : 16 bits
Compression mode            : Lossy
Stream size                 : 223 MiB (3%)
Title                       : MVO [Novyj] 5.1 384 kbps
Language                    : Ukrainian
Service kind                : Complete Main
Default                     : Yes
Forced                      : No

Audio #2
ID                          : 3
Format                      : AC-3
Format/Info                 : Audio Coding 3
Format settings, Endianness : Big
Codec ID                    : A_AC3
Duration                    : 1 h 21 min
Bit rate mode               : Constant
Bit rate                    : 192 kb/s
Channel(s)                  : 2 channels
Channel positions           : Front: L R
Sampling rate               : 48.0 kHz
Frame rate                  : 31.250 FPS (1536 SPF)
Bit depth                   : 16 bits
Compression mode            : Lossy
Stream size                 : 111 MiB (1%)
Title                       : MVO [K1] 2.0 192 kbps
Language                    : Ukrainian
Service kind                : Complete Main
Default                     : No
Forced                      : No

Audio #3
ID                          : 4
Format                      : AC-3
Format/Info                 : Audio Coding 3
Format settings, Endianness : Big
Codec ID                    : A_AC3
Duration                    : 1 h 21 min
Bit rate mode               : Constant
Bit rate                    : 640 kb/s
Channel(s)                  : 6 channels
Channel positions           : Front: L C R, Side: L R, LFE
Sampling rate               : 48.0 kHz
Frame rate                  : 31.250 FPS (1536 SPF)
Bit depth                   : 16 bits
Compression mode            : Lossy
Stream size                 : 371 MiB (5%)
Title                       : Original, 5.1 640 kbps
Language                    : English
Service kind                : Complete Main
Default                     : No
Forced                      : No

Audio #4
ID                          : 5
Format                      :
Format/Info                 : Advanced Audio Codec
Format profile              : LC
Codec ID                    : A_AAC
Duration                    : 1 h 21 min
Bit rate                    : 160 kb/s
Channel(s)                  : 2 channels
Channel positions           : Front: L R
Sampling rate               : 48.0 kHz
Frame rate                  : 46.875 FPS (1024 SPF)
Compression mode            : Lossy
Delay relative to video     : 9 ms
Stream size                 : 92.8 MiB (1%)
Title                       : Commentary Nick Park & Steve Box, 2.0 160 kbps
Language                    : English
Default                     : No
Forced                      : No

Text #1
ID                          : 6
Format                      : UTF-8
Codec ID                    : S_TEXT/UTF8
Codec ID/Info               : UTF-8 Plain Text
Duration                    : 1 h 10 min
Bit rate                    : 41 b/s
Count of elements           : 743
Stream size                 : 21.7 KiB (0%)
Title                       : Eng Full
Language                    : English
Default                     : No
Forced                      : No

Text #2
ID                          : 7
Format                      : UTF-8
Codec ID                    : S_TEXT/UTF8
Codec ID/Info               : UTF-8 Plain Text
Duration                    : 1 h 19 min
Bit rate                    : 47 b/s
Count of elements           : 1119
Stream size                 : 27.8 KiB (0%)
Title                       : Eng SDH
Language                    : English
Default                     : No
Forced                      : No

Text #3
ID                          : 8
Format                      : UTF-8
Codec ID                    : S_TEXT/UTF8
Codec ID/Info               : UTF-8 Plain Text
Duration                    : 1 h 17 min
Bit rate                    : 99 b/s
Count of elements           : 1326
Stream size                 : 56.1 KiB (0%)
Title                       : Eng Commentary Nick Park & Steve Box
Language                    : English
Default                     : No
Forced                      : No


Джерело: &
Подяка за українські доріжки xslim'у, робота зі звуком - BenderBEST (HDClub)



 Трекер:    Зареєстрований   

Завантажити / скачати мультфільм українською



відео для новачків



 Зареєстрований:   2017-07-30 12:39
 Розмір:   7.35 GB 
 Оцінка мультфільму:   3.5/10 (Голосів: 14)
   
Ваш часовий пояс: GMT + 2 Години

Нова тема   Відповісти