Ескімоска - 4 сезон (2016) 720p

Нові коментарі

Нова тема   Відповісти
Автор Повідомлення
andriyandriy100 
Частий відвідувач


З нами з: 09.04.15
Востаннє: 20.08.17
Повідомлень: 32

2017-07-30 11:18  
Ескімоска - 4 сезон (2016) 720p

Ескімоска - 4 сезон (2016) 720p


Жанр: анімація, пригодницький, дитячий, німе кіно, комедія, сімейний
Країна: Україна

Кінокомпанія: Animagrad
Режисер: Олексій Шапарєв
Продюсер: Єгор Олесов
Сюжет:
В Арктиці завжди лежить сніг і ніколи не буває спекотного літа. Але маленька дівчинка Ескімоска не сумує навіть за таких суворих умов. Щодня на неї чекають дивовижні події та знахідки: море приносить грамофон, клаксон, рятувальний пліт, парасольку... Що це за предмети і для чого вони потрібні? Ескімоска та її друзі готові розгадувати найскладніші загадки!
Кожна серія мультфільму — добра і зворушлива історія для найменших глядачів про пригоди допитливої дівчинки Ескімоски та її друзів. Герої спілкуються між собою мовою жестів, міміки і звуків, зрозумілою дітям у всьому світі. Повсякденні пригоди героїв допомагають глядачам у веселій формі дізнаватися про прості, але важливі речі та розвивати логічне мислення.


Тривалість: 1 серія: 6 хв. (цілком серій: 26)
Перелік серій
1. Повернення полярника
2. Озонова дірка
3. Телевізор
4. Неслухняні пінгвіни
5. Океан захворів
6. Змагання
7. Морозиво
8. Сміливий Афі
9. Новий друг
10. Снігохід
11. Риболовля
12. Полярник і Діді
13. Арктична мода
14. Чарівний бубон
15. Разом веселіше
16. Полярник захворів
17. Новосілля
18. Пташенята шибеники
19. Динаміт
20. Дивна знахідка
21. Ведмедик-крадійко
22. Посварилися
23. Пригоди на кухні
24. Браконьєри
25. День народження Діді
26. Небезпечні ігри
Якість:
Відео:
кодек:
розмір кадру: 1280x720
бітрейт: ~2000 kbps

Аудіо:
мова: українська
переклад: оригінал
кодек: AАС 2ch
бітрейт: 126 kbps
Скріншоти
Info

General
Complete name : 01. Ескімоска - Повернення полярника.mp4
Format : MPEG-4
Format profile : Base Media
Codec ID : isom
File size : 91.2 MiB
Duration : 5mn 56s
Overall bit rate : 2 149 Kbps
Writing application : Lavf57.2.100
Video
ID : 1
Format : AVC
Format/Info : Advanced Video Codec
Format profile : [email protected]
Format settings, CABAC : Yes
Format settings, ReFrames : 3 frames
Codec ID : avc1
Codec ID/Info : Advanced Video Coding
Duration : 5mn 55s
Bit rate : 2 014 Kbps
Width : 1 280 pixels
Height : 720 pixels
Display aspect ratio : 16:9
Frame rate mode : Constant
Frame rate : 50.000 fps
Color space : YUV
Chroma subsampling : 4:2:0
Bit depth : 8 bits
Scan type : Progressive
Bits/(Pixel*Frame) : 0.044
Stream size : 85.5 MiB (94%)
Color primaries : BT.709
Transfer characteristics : BT.709
Matrix coefficients : BT.709
Audio
ID : 2
Format :
Format/Info : Advanced Audio Codec
Format profile : LC
Codec ID : 40
Duration : 5mn 56s
Bit rate mode : Constant
Bit rate : 126 Kbps
Channel(s) : 2 channels
Channel positions : Front: L R
Sampling rate : 44.1 KHz
Compression mode : Lossy
Delay relative to video : 20ms
Stream size : 5.33 MiB (6%)
Джерело: tet.tv
Особиста оцінка: 8 - мені сподобалося


Золотий реліз (завантажене не впливає на рейтинг)
 Трекер:    Зареєстрований   

Завантажити / скачати український мультфільм



відео для новачків



 Зареєстрований:   2017-07-30 11:18
 Розмір:   2.37 GB 
 Оцінка мультсеріалу:   10/10 (Голосів: 4)
   
-_-B_E_N_D_E_R-_- 
Забанено
Забанено


З нами з: 09.01.14
Востаннє: 22.05.18
Повідомлень: 911

2017-07-30 17:03  
Маразм!!!.
IvXynta 
Попереджень: 1
Попереджень: 1 


З нами з: 09.05.16
Востаннє: 27.10.17
Повідомлень: 265

2017-07-31 20:38  
-_-B_E_N_D_E_R-_-
Ви себе обмежили.( В наступному сезоні героїня знайде Китайську Абетку і буде на кожну серію вивчати один ієрогліф.

Ваш часовий пояс: GMT + 2 Години

Нова тема   Відповісти