Лего Ніндзяго: День спочилих / LEGO Ninjago: Day of the Departed (2016) 1080p Ukr/Eng | sub Eng

Нові коментарі

Нова тема   Відповісти
Автор Повідомлення
sergiyko.5 
VIP


З нами з: 25.02.16
Востаннє: 18.08.17
Повідомлень: 986

2017-07-30 00:21  
Лего Ніндзяго: День спочилих / LEGO Ninjago: Day of the Departed (2016) 1080p Ukr/Eng | sub Eng

Лего Ніндзяго: День спочилих / LEGO Ninjago: Day of the Departed (2016) 1080p Ukr/Eng | sub Eng

Жанр: дитячий, пригоди, фентезі
Країна: Данія, Китай
Кінокомпанія: LEGO, Wil Film
Режисер: Пітер Хауснер

Сюжет:
Справжні герої Lego Ninjago оживають на наших екранах. Майстри бойових мистецтв, кожен з яких володіє унікальним видом зброї та особливими здібностями. Вони здатні здолати будь-якого ворога.

Кай – червоний ніндзя вогню. Майстер золотого меча та вибухової атаки.
Джей – блискавичний ніндзя, майстер нунчак та неймовірної швидкості
Зейн – повелитель крижаного холоду. Вправний майстер сюракени та холоднокровний як айсберг.
Коул – міцний як скеля, нестримний як ураган. Майстер бойової коси та потужної оборони.
Майcтер Ву – сенсей спінджицу та володар енергії творення.
Нійя – майстриня кінжалів та інтуіції, сестра Кая.

Хіба всесвітнє зло має шанси на перемогу?




Додаткова інформація: спеціальний ТБ-епізод LEGO Ninjago: Masters of Spinjitzu, який передує Сезону 7. Коул буде головним героєм.

Тривалість: 45:55
Якість:

Відео: кодек: розмір кадру: 1916 х 1076 бітрейт: 5100 кб/с
Аудіо #1: мова: українська переклад: професійний дубльований кодек: 2.0 бітрейт: 192 кб/с
Аудіо #2: мова: англійська переклад: оригінал кодек: 2.0 бітрейт: 160 кб/с
Субтитри: мова: англійська тип: програмні (м'які) формат: *.srt
Джерело озвучення:
Про файл:
General
Unique ID : 227404910810595031142841086686883475033 (0xAB1497BCB3329F7E8DF1012A3ED7EE59)
Complete name : D:\Torrents\MULT\LEGO.Ninjago.Masters.of.Spinjitzu.Day.of.the.Departed.1080p..Ukr.Eng.
Format :
Format version : Version 4 / Version 2
File size : 1.76 GiB
Duration : 45 min 54 s
Overall bit rate : 5 486 kb/s
Movie name : LEGO.Ninjago.Masters.of.Spinjitzu.S06.Day.of.the.Departed.1080p. by sergiyko
Encoded date : UTC 2017-07-29 21:04:48
Writing application : mkvmerge v14.0.0 ('Flow') 64bit
Writing library : libebml v1.3.4 + libmatroska v1.4.5

Video
ID : 1
Format : AVC
Format/Info : Advanced Video Codec
Format profile : [email protected]
Format settings, CABAC : Yes
Format settings, RefFrames : 4 frames
Codec ID : V_MPEG4/ISO/AVC
Duration : 45 min 54 s
Bit rate : 5 134 kb/s
Width : 1 916 pixels
Height : 1 076 pixels
Display aspect ratio : 16:9
Frame rate mode : Constant
Frame rate : 23.976 (23976/1000) FPS
Color space : YUV
Chroma subsampling : 4:2:0
Bit depth : 8 bits
Scan type : Progressive
Bits/(Pixel*Frame) : 0.104
Stream size : 1.65 GiB (94%)
Title : S06 Day of the Departed
Language : English
Default : Yes
Forced : No
Color range : Limited
Color primaries : BT.709
Transfer characteristics : BT.709
Matrix coefficients : BT.709

Audio #1
ID : 2
Format : AC-3
Format/Info : Audio Coding 3
Format settings, Endianness : Big
Codec ID : A_AC3
Duration : 45 min 54 s
Bit rate mode : Constant
Bit rate : 192 kb/s
Channel(s) : 2 channels
Channel positions : Front: L R
Sampling rate : 48.0 kHz
Frame rate : 31.250 FPS (1536 SPF)
Bit depth : 16 bits
Compression mode : Lossy
Stream size : 63.0 MiB (4%)
Title : DUB | ПлюсПлюс
Language : Ukrainian
Service kind : Complete Main
Default : Yes
Forced : Yes

Audio #2
ID : 3
Format :
Format/Info : Advanced Audio Codec
Format profile : LC
Codec ID : A_AAC
Duration : 45 min 54 s
Bit rate : 157 kb/s
Channel(s) : 2 channels
Channel positions : Front: L R
Sampling rate : 48.0 kHz
Frame rate : 46.875 FPS (1024 SPF)
Compression mode : Lossy
Stream size : 51.4 MiB (3%)
Title : Original
Language : English
Default : No
Forced : No

Text
ID : 4
Format : UTF-8
Codec ID : S_TEXT/UTF8
Codec ID/Info : UTF-8 Plain Text
Duration : 45 min 24 s
Bit rate : 70 b/s
Count of elements : 1118
Stream size : 23.4 KiB (0%)
Language : English
Default : No
Forced : No
Скріншоти:


Реліз: sergiyko



 Трекер:    Зареєстрований   

Завантажити / скачати мультфільм українською



відео для новачків



 Зареєстрований:   2017-07-30 00:21
 Розмір:   1.76 GB 
 Оцінка мультфільму:   10/10 (Голосів: 7)
   
VitNi 
Свій


З нами з: 05.05.12
Востаннє: 17.08.17
Повідомлень: 68

2017-07-30 09:22  
Чому не висвітлено IMDB ?

Ваш часовий пояс: GMT + 2 Години

Нова тема   Відповісти