Твоє ім'я / Kimi no Na wa / Your name (2016) 720p UKR/JAP | Sub UKR

Нові коментарі

Нова тема   Відповісти
Автор Повідомлення
Gwean 
Відео Гуртом - фільмокрай
Відео Гуртом - фільмокрай


З нами з: 28.07.12
Востаннє: 22.08.17
Повідомлень: 449

2017-07-29 21:47  
Твоє ім'я / Kimi no Na wa / Your name (2016) 720p UKR/JAP | Sub UKR



Жанр: романтика, фантастика, сейнен
Країна: Японія

8.57 (48 голосів)

Кіностудія / кінокомпанія: CoMix Wave Films
Режисер: Макото Шінкай
Ролі озвучують: Камішіраші Моне, Камікі Рюносуке, Неґасава Масамі, Ічіхара Єтсуко та ін.

Сюжет:
Події відбуваються в Японії, коли вперше за тисячоліття близько біля Землі пролітає комета. Міцуха, учениця старшої школи, живе в селі і мріє жити в місті, бо втомилася від сільського життя. У той же час, є Такі, також учень старшої школи, який живе у Токіо з друзями і підробляє в італійському ресторані. До того ж, він захоплюється архітектурою та малюванням. Одного дня, Міцуха прокидається в тілі хлопця з Токіо, а Такі - в тілі дівчини з села. В чому ж секрет такого перевтілення?


Тривалість: 01:46:36

Якість:
Відео:
кодек:
розмір кадру: 1280x720
бітрейт: ~2084 кб/с

Аудіо-1:
мова: українська
переклад: двоголосий закадровий
кодек: 5.1
бітрейт: 640 кб/с

Аудіо-2:
мова: японська
переклад: оригінал
кодек: 5.1
бітрейт: 640 кб/с

Субтитри-1:
мова: українська, тільки написи
формат: ASS
тип: м'які, внутрішні

Субтитри:
мова: українська, повні
формат: ASS
тип: м'які, внутрішні

Скріншоти




Звіт Info
General
Unique ID : 170260515095519346918023171849111578416 (0x8016FB80FC81B568972A19B7EEEDA730)
Complete name : R:\Kimi No Na Wa\[AniUA]_Kimi_No_Na_Wa_(BDRip_x264_720_AC3)_[Gwean_Maslinka].
Format :
Format version : Version 4 / Version 2
File size : 2.51 GiB
Duration : 1 h 46 min
Overall bit rate : 3 365 kb/s
Movie name : Твоє ім'я
Encoded date : UTC 2017-07-29 18:05:11
Writing application : mkvmerge v7.0.0 ('Where We Going') 32bit built on Jun 9 2014 15:08:34
Writing library : libebml v1.3.0 + libmatroska v1.4.1
Cover : Yes
Attachments : cover.jpg

Video
ID : 1
Format : AVC
Format/Info : Advanced Video Codec
Format profile : [email protected]
Format settings, CABAC : Yes
Format settings, ReFrames : 4 frames
Codec ID : V_MPEG4/ISO/AVC
Duration : 1 h 46 min
Bit rate : 2 084 kb/s
Width : 1 280 pixels
Height : 720 pixels
Display aspect ratio : 16:9
Frame rate mode : Constant
Frame rate : 23.976 (24000/1001) FPS
Color space : YUV
Chroma subsampling : 4:2:0
Bit depth : 8 bits
Scan type : Progressive
Bits/(Pixel*Frame) : 0.094
Stream size : 1.55 GiB (62%)
Title : Твоє ім'я
Writing library : core 152 r2851+58 429492e t_mod_Custom [[email protected] X86_64]
Encoding settings : cabac=1 / ref=3 / deblock=1:0:0 / analyse=0x1:0x131 / me=umh / subme=9 / psy=1 / fade_compensate=0.00 / psy_rd=1.00:0.00 / mixed_ref=1 / me_range=32 / chroma_me=1 / trellis=1 / 8x8dct=0 / cqm=0 / deadzone=21,11 / fast_pskip=1 / chroma_qp_offset=-2 / threads=12 / lookahead_threads=1 / sliced_threads=0 / nr=0 / decimate=1 / interlaced=0 / bluray_compat=0 / constrained_intra=0 / fgo=0 / bframes=3 / b_pyramid=2 / b_adapt=1 / b_bias=0 / direct=1 / weightb=1 / open_gop=0 / weightp=2 / keyint=240 / keyint_min=1 / scenecut=40 / intra_refresh=0 / rc_lookahead=40 / rc=crf / mbtree=1 / crf=18.0000 / qcomp=0.60 / qpmin=0:0:0 / qpmax=69:69:69 / qpstep=4 / ip_ratio=1.40 / aq=1:1.00 / aq-sensitivity=10.00 / aq-factor=1.00:1.00:1.00 / aq2=0 / aq3=0
Language : Japanese
Default : Yes
Forced : Yes

Audio #1
ID : 2
Format : AC-3
Format/Info : Audio Coding 3
Mode extension : CM (complete main)
Format settings, Endianness : Big
Codec ID : A_AC3
Duration : 1 h 46 min
Bit rate mode : Constant
Bit rate : 640 kb/s
Channel(s) : 6 channels
Channel positions : Front: L C R, Side: L R, LFE
Sampling rate : 48.0 kHz
Frame rate : 31.250 FPS (1536 spf)
Bit depth : 16 bits
Compression mode : Lossy
Stream size : 488 MiB (19%)
Title : двоголосий закадровий від Gwean & Maslinka
Language : Ukrainian
Default : Yes
Forced : Yes

Audio #2
ID : 3
Format : AC-3
Format/Info : Audio Coding 3
Mode extension : CM (complete main)
Format settings, Endianness : Big
Codec ID : A_AC3
Duration : 1 h 46 min
Bit rate mode : Constant
Bit rate : 640 kb/s
Channel(s) : 6 channels
Channel positions : Front: L C R, Side: L R, LFE
Sampling rate : 48.0 kHz
Frame rate : 31.250 FPS (1536 spf)
Bit depth : 16 bits
Compression mode : Lossy
Stream size : 488 MiB (19%)
Title : оригінальна доріжка
Language : Japanese
Default : No
Forced : No

Text #1
ID : 4
Format : ASS
Codec ID : S_TEXT/ASS
Codec ID/Info : Advanced Sub Station Alpha
Duration : 1 h 39 min
Bit rate : 1 b/s
Count of elements : 10
Compression mode : Lossless
Stream size : 838 Bytes (0%)
Title : написи від MadGuy (aniua.com)
Language : Ukrainian
Default : Yes
Forced : Yes

Text #2
ID : 5
Format : ASS
Codec ID : S_TEXT/ASS
Codec ID/Info : Advanced Sub Station Alpha
Duration : 1 h 40 min
Bit rate : 107 b/s
Count of elements : 1133
Compression mode : Lossless
Stream size : 78.9 KiB (0%)
Title : повні від MadGuy (aniua.com)
Language : Ukrainian
Default : No
Forced : No
Переклад та озвучення виконано:
Переклад: MadGuy (AniUA)
Ролі озвучили: Gwean & Maslinka
Робота зі звуком: Gwean


Авторський реліз (завантажувати можна без реєстрації)
 Трекер:    Зареєстрований   

Завантажити / скачати аніме українською



відео для новачків



 Зареєстрований:   2017-07-29 21:47
 Розмір:   2.51 GB 
 Оцінка аніме:   9.9/10 (Голосів: 12)
   
Ваш часовий пояс: GMT + 2 Години

Нова тема   Відповісти