Не ті хлопці / The Wrong Mans (Сезон 2) (2014) 720p Ukr/Eng | sub Eng

Нові коментарі

Нова тема   Відповісти
Останній раз роздавалося [email protected] (2019-08-24)
Автор Повідомлення
sergiyko.5 
VIP


З нами з: 25.02.16
Востаннє: 24.08.19
Повідомлень: 2443

2017-07-29 20:23  
Не ті хлопці / The Wrong Mans (Сезон 2) (2014) 720p Ukr/Eng | sub Eng

Не ті хлопці / The Wrong Mans (Сезон 2) (2014) 720p Ukr/Eng | sub Eng

Жанр: комедія, кримінал
Країна: Велика Британія
Кінокомпанія: BBC
Режисер: Джим Філд Сміт
Актори: Метью Бейнтон, Джеймс Корден, Сара Солемані, Том Басден, Емілія Фокс, Дон Френч, Пол Коулі, Джордан Лонг, Девід Колдер, Стівен Кемпбелл Мур

Сюжет:
Це не ті хлопці, які подобаються дівчатам. Чи не ті хлопці, з якими варто йти в розвідку. Чи не ті хлопці, які можуть врятувати світ. Це взагалі не ті хлопці. Два офісних хлюпика помилково відповідають на дзвінок по чужому телефону і виявляються в центрі міжнародної змови. Але тепер вже їм доведеться стати героями. Обережно - чорний британський офісний гумор!




Тривалість: 2 серії: 57:28 (цілком серій: 4)
Якість:

Відео: кодек: розмір кадру: 1280 х 720 бітрейт: 2100 кб/с
Аудіо # 1: мова: українська переклад: багатоголосий закадровий кодек: 2.0 бітрейт: 192 кб/с
Джерело озвучення:
Аудіо # 2: мова: англійська переклад: оригінал кодек: 2.0 бітрейт: 192 кб/с
Субтитри : мова: англійська тип: програмні (м'які) формат: *.srt
Перелік серій:
01 X-Mans
02 White Mans
03 Action Mans
04 Wise Mans
Про файл:
General
Unique ID : 179901675367933204211241665956747275513 (0x8757CD67B452EB13A9954A0DBE25ECF9)
Complete name : E:\FILMS\The Wrong Mans S02 720p \The.Wrong.Mans.Season.S02E01-02..720p.Ukr.Eng.
Format :
Format version : Version 4 / Version 2
File size : 1.00 GiB
Duration : 57 min 28 s
Overall bit rate : 2 495 kb/s
Movie name : The Wrong Mans S02 720p by sergiyko
Encoded date : UTC 2017-07-29 10:05:29
Writing application : v14.0.0 ('Flow') 64bit
Writing library : libebml v1.3.4 + v1.4.5

Video
ID : 1
Format : AVC
Format/Info : Advanced Video Codec
Format profile : [email protected]
Format settings, CABAC : Yes
Format settings, RefFrames : 8 frames
Codec ID : V_MPEG4/ISO/AVC
Duration : 57 min 28 s
Bit rate : 2 109 kb/s
Width : 1 280 pixels
Height : 720 pixels
Display aspect ratio : 16:9
Frame rate mode : Constant
Frame rate : 25.000 FPS
Color space : YUV
Chroma subsampling : 4:2:0
Bit depth : 8 bits
Scan type : Progressive
Bits/(Pixel*Frame) : 0.092
Stream size : 867 MiB (85%)
Title : S02E01-02 X-Mans/White Mans
Language : English
Default : Yes
Forced : No
Color range : Limited
Matrix coefficients : BT.709

Audio #1
ID : 2
Format : AC-3
Format/Info : Audio Coding 3
Format settings, Endianness : Big
Codec ID : A_AC3
Duration : 57 min 27 s
Bit rate mode : Constant
Bit rate : 192 kb/s
Channel(s) : 2 channels
Channel positions : Front: L R
Sampling rate : 48.0 kHz
Frame rate : 31.250 FPS (1536 SPF)
Bit depth : 16 bits
Compression mode : Lossy
Stream size : 78.9 MiB (8%)
Title : MOV | NLO TV
Language : Ukrainian
Service kind : Complete Main
Default : Yes
Forced : Yes

Audio #2
ID : 3
Format : AC-3
Format/Info : Audio Coding 3
Format settings, Endianness : Big
Codec ID : A_AC3
Duration : 57 min 27 s
Bit rate mode : Constant
Bit rate : 192 kb/s
Channel(s) : 2 channels
Channel positions : Front: L R
Sampling rate : 48.0 kHz
Frame rate : 31.250 FPS (1536 SPF)
Bit depth : 16 bits
Compression mode : Lossy
Delay relative to video : 16 ms
Stream size : 78.9 MiB (8%)
Title : Original
Language : English
Service kind : Complete Main
Default : No
Forced : No

Text
ID : 4
Format : UTF-8
Codec ID : S_TEXT/UTF8
Codec ID/Info : UTF-8 Plain Text
Duration : 56 min 45 s
Bit rate : 73 b/s
Count of elements : 871
Stream size : 30.7 KiB (0%)
Language : English
Default : No
Forced : No
Скріншоти:




Бронзовий реліз (на рейтинг впливає 75% завантаженого)
 Трекер:    Зареєстрований   

Завантажити / скачати серіал українською



відео для новачків



 Зареєстрований:   2017-07-29 20:23
 Розмір:   1.99 GB 
 Оцінка серіалу:   9.1/10 (Голосів: 8)
   
Ваш часовий пояс: GMT + 2 Години

Нова тема   Відповісти