Остання любов на Землі / Останнє кохання на Землі / Ідеальне відчуття / Perfect Sense (2011) 1080p 2хUkr/Eng │ Sub Ukr/Eng

Нові коментарі

Нова тема   Відповісти
Автор Повідомлення
IronBee 
Свій


З нами з: 08.02.10
Востаннє: 25.11.17
Повідомлень: 80

2017-07-29 12:45  
Остання любов на Землі / Останнє кохання на Землі / Ідеальне відчуття / Perfect Sense (2011) 1080p 2хUkr/Eng │ Sub Ukr/Eng



Жанр: драма, романтичний, наукова фантастика
Країна: Велика Британія, Швеція, Данія, Ірландія



Кінокомпанія: Sigma Films, Film i Väst, Subotica Entertainment, Zentropa Entertainments
Режисер: Девід Маккензі
Актори: Eван МакҐреґор, Єва Ґрін, Конні Нільсен, Стівен Діллейн, Еван Бремнер та інші

Сюжет:
У той час, як Землю охоплює епідемія вірусу, який позбавляє людей всіх п’яти основних фізичних відчуттів, між лікаркою-епідеміологом і шеф-кухарем з модного ресторану спалахує почуття, яке у них ніхто не зможе відібрати.


Тривалість: 01:32:10
Якість: 1080p
Відео:
кодек:
розмір кадру: 1920 х 816
бітрейт: 9153 кб/с

Аудіо # 1:
мова: українська
переклад: багатоголосий закадровий
кодек: 2.0
бітрейт: 192 кб/с

Аудіо # 2: [Gwean & Maslinka]
мова: українська
переклад: двоголосий закадровий
кодек: 5.1
бітрейт: 640 кб/с

Аудіо # 3:
мова: англійська
переклад: оригінал
кодек: 5.1
бітрейт: 755 кб/с

Субтитри # 1-2: (форсовані, повні)
мова: українська
тип: програмні (м'які)
формат: *.srt

Субтитри # 3:
мова: англійська
тип: програмні (м'які)
формат: *.srt
Info
General
Unique ID : 228648871214758796596804410793569900177 (0xAC042BB8634684B698A712F128895691)
Complete name : E:\Films\Perfect Sense (2011) 1080p [2xUKR_ENG] [Hurtom] .
Format :
Format version : Version 4 / Version 2
File size : 6.92 GiB
Duration : 1 h 32 min
Overall bit rate : 10.7 Mb/s
Movie name : -::: ed_rez :::-
Encoded date : UTC 2017-07-28 14:51:53
Writing application : mkvmerge v14.0.0 ('Flow') 64bit
Writing library : libebml v1.3.4 + libmatroska v1.4.5

Video
ID : 1
Format : AVC
Format/Info : Advanced Video Codec
Format profile : [email protected]
Format settings, CABAC : Yes
Format settings, ReFrames : 5 frames
Codec ID : V_MPEG4/ISO/AVC
Duration : 1 h 32 min
Bit rate : 9 153 kb/s
Width : 1 920 pixels
Height : 816 pixels
Display aspect ratio : 2.35:1
Frame rate mode : Constant
Frame rate : 24.000 FPS
Color space : YUV
Chroma subsampling : 4:2:0
Bit depth : 8 bits
Scan type : Progressive
Bits/(Pixel*Frame) : 0.243
Stream size : 5.90 GiB (85%)
Title : Perfect Sense (2011)
Writing library : core 120 r2164 da19765
Encoding settings : cabac=1 / ref=5 / deblock=1:0:0 / analyse=0x3:0x113 / me=umh / subme=9 / psy=1 / psy_rd=1.00:0.00 / mixed_ref=1 / me_range=16 / chroma_me=1 / trellis=1 / 8x8dct=1 / cqm=0 / deadzone=21,11 / fast_pskip=1 / chroma_qp_offset=-2 / threads=12 / sliced_threads=0 / nr=0 / decimate=1 / interlaced=0 / bluray_compat=0 / constrained_intra=0 / bframes=3 / b_pyramid=2 / b_adapt=1 / b_bias=0 / direct=3 / weightb=1 / open_gop=0 / weightp=2 / keyint=250 / keyint_min=24 / scenecut=40 / intra_refresh=0 / rc_lookahead=40 / rc=2pass / mbtree=1 / bitrate=9153 / ratetol=1.0 / qcomp=0.60 / qpmin=0 / qpmax=69 / qpstep=4 / cplxblur=20.0 / qblur=0.5 / ip_ratio=1.40 / aq=1:1.00
Language : English
Default : Yes
Forced : No

Audio #1
ID : 2
Format : AC-3
Format/Info : Audio Coding 3
Mode extension : CM (complete main)
Format settings, Endianness : Big
Codec ID : A_AC3
Duration : 1 h 32 min
Bit rate mode : Constant
Bit rate : 192 kb/s
Channel(s) : 2 channels
Channel positions : Front: L R
Sampling rate : 48.0 kHz
Frame rate : 31.250 FPS (1536 spf)
Bit depth : 16 bits
Compression mode : Lossy
Stream size : 127 MiB (2%)
Default : Yes
Forced : No

Audio #2
ID : 3
Format : AC-3
Format/Info : Audio Coding 3
Mode extension : CM (complete main)
Format settings, Endianness : Big
Codec ID : A_AC3
Duration : 1 h 32 min
Bit rate mode : Constant
Bit rate : 640 kb/s
Channel(s) : 6 channels
Channel positions : Front: L C R, Side: L R, LFE
Sampling rate : 48.0 kHz
Frame rate : 31.250 FPS (1536 spf)
Bit depth : 16 bits
Compression mode : Lossy
Stream size : 422 MiB (6%)
Default : No
Forced : No

Audio #3
ID : 4
Format :
Format/Info : Digital Theater Systems
Mode : 16
Format settings, Endianness : Big
Codec ID : A_DTS
Duration : 1 h 32 min
Bit rate mode : Constant
Bit rate : 755 kb/s
Channel(s) : 6 channels
Channel positions : Front: L C R, Side: L R, LFE
Sampling rate : 48.0 kHz
Frame rate : 93.750 FPS (512 spf)
Bit depth : 16 bits
Compression mode : Lossy
Stream size : 497 MiB (7%)
Title : [Original] , 6 ch, 755 Кбит/с
Language : English
Default : No
Forced : No

Text #1
ID : 5
Format : UTF-8
Codec ID : S_TEXT/UTF8
Codec ID/Info : UTF-8 Plain Text
Duration : 1 h 16 min
Bit rate : 1 b/s
Count of elements : 12
Stream size : 708 Bytes (0%)
Default : Yes
Forced : No

Text #2
ID : 6
Format : UTF-8
Codec ID : S_TEXT/UTF8
Codec ID/Info : UTF-8 Plain Text
Duration : 1 h 26 min
Bit rate : 65 b/s
Count of elements : 823
Stream size : 41.4 KiB (0%)
Default : No
Forced : No

Text #3
ID : 7
Format : UTF-8
Codec ID : S_TEXT/UTF8
Codec ID/Info : UTF-8 Plain Text
Duration : 1 h 26 min
Bit rate : 41 b/s
Count of elements : 836
Stream size : 26.2 KiB (0%)
Language : English
Default : No
Forced : No

Menu
00:00:00.000 : en:00:00:00.000
00:07:20.042 : en:00:07:20.042
00:13:36.625 : en:00:13:36.625
00:22:45.000 : en:00:22:45.000
00:28:32.000 : en:00:28:32.000
00:37:29.417 : en:00:37:29.417
00:43:56.833 : en:00:43:56.833
00:51:35.208 : en:00:51:35.208
00:57:41.583 : en:00:57:41.583
01:07:11.583 : en:01:07:11.583
01:14:17.958 : en:01:14:17.958
01:20:18.125 : en:01:20:18.125
01:27:21.833 : en:01:27:21.833
Скріншоти



За запис звуку для створення першої доріжки подяка пану krigg070, за зведення - п.drop_plz
За другу доріжку подяка пану FBRUA, за постер - п.Лунсар

Джерело: &
Особиста оцінка: 10 - без зайвих вагань рекомендую всім!


 Трекер:    Зареєстрований   

Завантажити / скачати фільм українською



відео для новачків



 Зареєстрований:   2017-07-29 12:45
 Розмір:   6.92 GB 
 Оцінка фільму:   8.5/10 (Голосів: 12)
   
Pantera_h3 
Новенький


З нами з: 27.02.10
Востаннє: 23.11.17
Повідомлень: 4

2017-08-02 21:31  
Неймовірно сильний фільм. Обов"язково вартий перегляду
Ваш часовий пояс: GMT + 2 Години

Нова тема   Відповісти