Долорес Клейборн / Dolores Claiborne (1995) 720p Ukr/Eng | Sub Eng

Нові коментарі

Нова тема   Відповісти
Автор Повідомлення
Anonymous 







2017-07-29 02:22  
Долорес Клейборн / Dolores Claiborne (1995) 720p Ukr/Eng | Sub Eng

Долорес Клейборн / Dolores Claiborne (1995) 720p Ukr/Eng | Sub Eng

Жанр: трилер, драма, кримінальний, детектив
Країна: США



Кінокомпанія: Castle Rock Entertainment, Columbia Pictures Corporation
Режисер: Тейлор Гекфорд / Taylor Hackford
Актори: Кеті Бейтс / Kathy Bates, Дженніфер Джейсон Лі / Jennifer Jason Leigh, Крістофер Пламмер / Christopher Plummer, Девід Стретейрн / David Strathairn, Джуді Парфітт / Judy Parfitt, Джон С. Рейллі / John C. Reilly, Еллен Мут / Ellen Muth, Роберт Гантон / Robert Gunton, Ерік Богосян / Eric Bogosian та інші

Сюжет:
Все життя Долорес Клейборн пропрацювала в розкішному домі Віри Донован — найбагатшої жительки невеликого американського острову. Долорес ніколи не віддалялася від цього острову більше, ніж на 50 миль. У неї був чоловік Джо і донька Селіна. Але чоловік, п'яниця і нероба, помер під час нещасного випадку багато років назад, а донька не приїздить вже 13 років. Що ж відбулося цього разу, що Селіна, відома журналістка, покинула все та помчала до матері, хоча не відчувала до неї любові? Померла Віра Донован, а місцевий детектив Джон Мекі вважає, що винна Долорес. Він не вірить в те, що Джо помер внаслідок нещасного випадку, як і Віра Донован, адже після її смерті все її багатство перейшло до Долорес. Саме детектив викликав Селіну...

Фільм знято за однойменним романом Стівена Кінга.

Рейтинг MPAA: R - особам до 17 років обов'язкова присутність батьків або дорослого опікуна
Вікова категорія: 16+
Тривалість: 02:11:31
Якість: 720p
Відео:
кодек:
розмір кадру: 1280 х 534
бітрейт: 3888 кб/с

Аудіо # 1:
мова: українська
переклад: багатоголосий закадровий
кодек: 5.1
бітрейт: 384 кб/с

Аудіо # 2:
мова: англійська
переклад: оригінал
кодек: 5.1
бітрейт: 384 кб/с

Субтитри:
мова: англійська
тип: програмні (м'які)
формат: *.srt

Збережено оригінальні розділи
Info
Код:
Complete name               : Dolores Claiborne (1995) [Ukr,Eng sub.Eng] 720p [Hurtom].
Format                      :
Format version              : Version 4 / Version 2
File size                   : 4.28 GiB
Duration                    : 2 h 11 min
Overall bit rate            : 4 658 kb/s
Movie name                  : Долорес Клейборн / Dolores Claiborne (1995) [Ukr,Eng sub.Eng] 720p [Hurtom]
Released date               : 1995
Cover                       : Yes
Comment                     : http://www.imdb.com/title/tt0109642/
Attachments                 : cover.jpg
ARTIST                      : Кеті Бейтс / Kathy Bates, Дженніфер Джейсон Лі / Jennifer Jason Leigh, Крістофер Пламмер / Christopher Plummer, Девід Стретейрн / David Strathairn, Джуді Парфітт / Judy Parfitt, Джон С. Рейллі / John C. Reilly, Еллен Мут / Ellen Muth, Роберт Гантон / Robert Gunton, Ерік Богосян / Eric Bogosian та інші
DIRECTOR                    : Тейлор Гекфорд / Taylor Hackford
GENRE                       : трилер, драма, кримінальний, детектив
SYNOPSIS                    : Все життя Долорес Клейборн пропрацювала в розкішному домі Віри Донован — найбагатшої жительки невеликого американського острову. Долорес ніколи не віддалялася від цього острову більше, ніж на 50 миль. У неї був чоловік Джо і донька Селіна. Але чоловік, п'яниця і нероба, помер під час нещасного випадку багато років назад, а донька не приїздить вже 13 років. Що ж відбулося цього разу, що Селіна, відома журналістка, покинула все та помчала до матері, хоча не відчувала до неї любові? Померла Віра Донован, а місцевий детектив Джон Мекі вважає, що винна Долорес. Він не вірить в те, що Джо помер внаслідок нещасного випадку, як і Віра Донован, адже після її смерті все її багатство перейшло до Долорес. Саме детектив викликав Селіну... / Фільм знято за однойменним романом Стівена Кінга.
Url                         : https://toloka.to/t83179

Video
ID                          : 1
Format                      : AVC
Format/Info                 : Advanced Video Codec
Format profile              : [email protected]
Format settings, CABAC      : No
Format settings, RefFrames  : 2 frames
Format settings, GOP        : N=1
Codec ID                    : V_MPEG4/ISO/AVC
Duration                    : 2 h 11 min
Bit rate                    : 3 888 kb/s
Width                       : 1 280 pixels
Height                      : 534 pixels
Display aspect ratio        : 2.40:1
Frame rate mode             : Constant
Frame rate                  : 23.976 (23976/1000) FPS
Color space                 : YUV
Chroma subsampling          : 4:2:0
Bit depth                   : 8 bits
Scan type                   : Progressive
Bits/(Pixel*Frame)          : 0.237
Stream size                 : 3.57 GiB (83%)
Title                       : Долорес Клейборн / Dolores Claiborne (1995) 720p
Language                    : English
Default                     : Yes
Forced                      : No
Color range                 : Limited
Color primaries             : BT.709
Transfer characteristics    : BT.709
Matrix coefficients         : BT.709

Audio #1
ID                          : 2
Format                      : AC-3
Format/Info                 : Audio Coding 3
Format settings, Endianness : Big
Codec ID                    : A_AC3
Duration                    : 2 h 11 min
Bit rate mode               : Constant
Bit rate                    : 384 kb/s
Channel(s)                  : 6 channels
Channel positions           : Front: L C R, Side: L R, LFE
Sampling rate               : 48.0 kHz
Frame rate                  : 31.250 FPS (1536 SPF)
Bit depth                   : 16 bits
Compression mode            : Lossy
Stream size                 : 361 MiB (8%)
Title                       : MVO [K1] 5.1 384 Kbps [Hurtom-igor911, SweetN, RB26DETT]
Language                    : Ukrainian
Service kind                : Complete Main
Default                     : Yes
Forced                      : Yes

Audio #2
ID                          : 3
Format                      : AC-3
Format/Info                 : Audio Coding 3
Format settings, Endianness : Big
Codec ID                    : A_AC3
Duration                    : 2 h 11 min
Bit rate mode               : Constant
Bit rate                    : 384 kb/s
Channel(s)                  : 6 channels
Channel positions           : Front: L C R, Side: L R, LFE
Sampling rate               : 48.0 kHz
Frame rate                  : 31.250 FPS (1536 SPF)
Bit depth                   : 16 bits
Compression mode            : Lossy
Stream size                 : 361 MiB (8%)
Title                       : Original, 5.1 384 Kbps
Language                    : English
Service kind                : Complete Main
Default                     : No
Forced                      : No

Text
ID                          : 4
Format                      : UTF-8
Codec ID                    : S_TEXT/UTF8
Codec ID/Info               : UTF-8 Plain Text
Duration                    : 2 h 5 min
Bit rate                    : 57 b/s
Count of elements           : 1637
Stream size                 : 53.3 KiB (0%)
Language                    : English
Default                     : No
Forced                      : No

Menu
00:00:00.000                : en:Caught in the act.
00:03:36.000                : en:Selena heads home.
00:07:38.000                : en:A little more to this.
00:10:51.000                : en:Being a bitch.
00:15:22.000                : en:House of memories.
00:22:05.000                : en:Where we are.
00:26:08.000                : en:Wanna' see the dark side?
00:29:46.000                : en:Payback.
00:34:45.000                : en:Years of Vera Donovan.
00:41:42.000                : en:By the root.
00:44:19.000                : en:Doing his job.
00:47:14.000                : en:It's over.
00:49:22.000                : en:On her head.
00:51:34.000                : en:A bad patch.
00:57:02.000                : en:Her scrapbook.
01:00:24.000                : en:Vera's legacy.
01:02:41.000                : en:Never feel better.
01:08:44.000                : en:Kill me now.
01:12:04.000                : en:Define our terms.
01:15:51.000                : en:Truth on the ferry.
01:18:56.000                : en:Missing money.
01:24:51.000                : en:What Selena doesn't remember.
01:27:08.000                : en:An unhappy woman's best friend.
01:33:25.000                : en:Vera's offer.
01:35:50.000                : en:Enjoy the day.
01:39:22.000                : en:Fury under the eclipse.
01:43:59.000                : en:The last of joe.
01:46:58.000                : en:Nobody's gonna' see.
01:51:53.000                : en:What's not in the report.
01:56:51.000                : en:Why we're really here.
02:03:19.000                : en:Not gonna' lose me.
02:06:43.000                : en:End Credits.


Джерело: &
Вихідна українська доріжка - SweetN та RB26DETT, синхронізація під - igor911, постер - hellforces.


Срібний реліз (на рейтинг впливає 50% завантаженого)
 Трекер:    Зареєстрований   

Завантажити / скачати фільм українською



відео для новачків



 Зареєстрований:   2017-07-29 02:54
 Розмір:   4.28 GB 
 Оцінка фільму:   4.4/10 (Голосів: 16)
   
Інші релізи
   Долорес Клейборн / Dolores Claiborne (1995) Ukr/Eng RB26DETT  9 / 0   2.19 GB   2009-12-01 15:11 
Ваш часовий пояс: GMT + 2 Години

Нова тема   Відповісти