Король Артур: Легенда меча / King Arthur: Legend of the Sword (2017) Remux 1080p Ukr/Eng | Sub Eng

Нові коментарі

Нова тема   Відповісти
Автор Повідомлення
IronBee 
Поважний учасник


З нами з: 08.02.10
Востаннє: 23.05.19
Повідомлень: 219

2017-07-28 20:03  
Король Артур: Легенда меча / King Arthur: Legend of the Sword (2017) Remux 1080p Ukr/Eng | Sub Eng



Жанр: бойовик, драма, пригодницький, фентезі
Країна: США, Велика Британія, Австралія



Кінокомпанія: Warner Bros., Village Roadshow Pictures, Safehouse Pictures, Weed Road Pictures
Режисер: Ґай Річі
Актори: Чарлі Ганнем, Астрід Берже-Фрісбі, Джуд Лоу, Джимон Гунсу, Ерік Бана, Ейден Ґіллен, Аннабелль Волліс, Герміона Корфілд, Фредді Фокс, Ніл Мескелл та інші

Сюжет:
Артур нічого не знає про своє минуле ... і не турбується про майбутнє – він живе тут і зараз. Кожен день хлопець ризикує розлучитися зі своїм життям. Його доля змінюється в той момент, коли він дістає з каменю чарівний меч Ескалібур, який і відкриває Артуру всю правду про його походження. Виявляється, він – спадкоємець убитих короля і королеви, а вбив їх рідний дядько Артура – Вортігерн ... Він незаконно захопив владу в Лондоніумі. Перед Артуром стоїть вибір: жити тим життям, до якої він звик, адже воно йому подобається, або допомогти народу скинути з престолу злобного тирана. Що б він не вибрав – спокійного життя не побачить.


Тривалість: 02:06:14
Якість: Remux
Відео:
кодек:
розмір кадру: 1920 х 1080
бітрейт: 24 Mб/с

Аудіо # 1:
мова: українська (Itunes)
переклад: професійний дубльований
кодек: 2.0
бітрейт: 192 кб/с

Аудіо # 2:
мова: англійська
переклад: оригінал
кодек: Dolby Atmos TrueHD 7.1
бітрейт: 3748 кб/с

Субтитри # 1:
мова: українська (форсовані)
тип: програмні (м'які)
формат: *.srt

Субтитри # 2-3:
мова: англійська (повні, SDH)
тип: програмні (м'які)
формат: *.srt
Info
General
Unique ID : 206464641223874306969121690294435088477 (0x9B53A4BC5A1970508B13AA164B2E885D)
Complete name : E:\Films\King Arthur Legend of the Sword (2017) Remux 1080p [UKR_ENG] [Hurtom] .
Format :
Format version : Version 4 / Version 2
File size : 24.7 GiB
Duration : 2 h 6 min
Overall bit rate mode : Variable
Overall bit rate : 28.1 Mb/s
Movie name : Меч короля Артура_King Arthur-Legend of the Sword.2017.Remux.NNMCLUB
Encoded date : UTC 2017-07-28 14:02:39
Writing application : v14.0.0 ('Flow') 64bit
Writing library : libebml v1.3.4 + v1.4.5

Video
ID : 1
Format : AVC
Format/Info : Advanced Video Codec
Format profile : [email protected]
Format settings, CABAC : Yes
Format settings, ReFrames : 4 frames
Codec ID : V_MPEG4/ISO/AVC
Duration : 2 h 6 min
Bit rate mode : Variable
Bit rate : 24.0 Mb/s
Maximum bit rate : 28.0 Mb/s
Width : 1 920 pixels
Height : 1 080 pixels
Display aspect ratio : 16:9
Frame rate mode : Constant
Frame rate : 23.976 (24000/1001) FPS
Color space : YUV
Chroma subsampling : 4:2:0
Bit depth : 8 bits
Scan type : Progressive
Bits/(Pixel*Frame) : 0.484
Stream size : 21.2 GiB (86%)
Title : Меч короля Артура_King Arthur-Legend of the Sword.2017
Language : English
Default : No
Forced : No

Audio #1
ID : 2
Format : AC-3
Format/Info : Audio Coding 3
Mode extension : CM (complete main)
Format settings, Endianness : Big
Codec ID : A_AC3
Duration : 2 h 6 min
Bit rate mode : Constant
Bit rate : 192 kb/s
Channel(s) : 2 channels
Channel positions : Front: L R
Sampling rate : 48.0 kHz
Frame rate : 31.250 FPS (1536 spf)
Bit depth : 16 bits
Compression mode : Lossy
Stream size : 173 MiB (1%)
Title : (iTunes)
Language : Ukrainian
Default : Yes
Forced : No

Audio #2
ID : 3
Format : Atmos / TrueHD
Codec ID : A_TRUEHD
Duration : 2 h 6 min
Bit rate mode : Variable
Bit rate : 3 748 kb/s
Maximum bit rate : 6 243 kb/s
Channel(s) : Object Based / 8 channels
Channel positions : Object Based / Front: L C R, Side: L R, Back: L R, LFE
Sampling rate : / 48.0 kHz
Frame rate : 1 200.000 FPS (40 spf)
Compression mode : Lossless
Stream size : 3.30 GiB (13%)
Language : English
Default : No
Forced : No

Text #1
ID : 4
Format : UTF-8
Codec ID : S_TEXT/UTF8
Codec ID/Info : UTF-8 Plain Text
Duration : 9 min 56 s
Bit rate : 4 b/s
Count of elements : 6
Stream size : 321 Bytes (0%)
Title : Форс.
Language : Ukrainian
Default : No
Forced : No

Text #2
ID : 5
Format : UTF-8
Codec ID : S_TEXT/UTF8
Codec ID/Info : UTF-8 Plain Text
Duration : 2 h 3 min
Bit rate : 42 b/s
Count of elements : 1255
Stream size : 38.2 KiB (0%)
Title : Full
Language : English
Default : No
Forced : No

Text #3
ID : 6
Format : UTF-8
Codec ID : S_TEXT/UTF8
Codec ID/Info : UTF-8 Plain Text
Duration : 2 h 4 min
Bit rate : 46 b/s
Count of elements : 1452
Stream size : 42.5 KiB (0%)
Title : SDH
Language : English
Default : No
Forced : No

Menu
00:00:00.000 : en:Chapter 01
00:12:43.220 : en:Chapter 02
00:21:05.347 : en:Chapter 03
00:32:32.659 : en:Chapter 04
00:43:09.378 : en:Chapter 05
00:56:47.987 : en:Chapter 06
01:06:48.546 : en:Chapter 07
01:14:13.031 : en:Chapter 08
01:23:44.394 : en:Chapter 09
01:36:36.791 : en:Chapter 10
01:46:57.244 : en:Chapter 11
01:58:58.798 : en:Chapter 12
Скріншоти




Джерело: &
Особиста оцінка: 10 - без зайвих вагань рекомендую всім!


Золотий реліз (завантажене не впливає на рейтинг)
 Трекер:    Зареєстрований   

Завантажити / скачати фільм українською



відео для новачків



 Зареєстрований:   2017-07-28 20:03
 Розмір:   24.74 GB 
 Оцінка фільму:   9.2/10 (Голосів: 40)
   
Maksimuss 
Новенький


З нами з: 15.07.17
Востаннє: 19.05.19
Повідомлень: 3

2017-07-28 23:17  
Дивився у кінотеатрі, в 3D - фільм та якість картинки дуже привабливі. Чекаю коли вийде режисерська версія фільму (кажуть що там ще на третю годину фільму відзнято і краще розкривається сюжет та характери героїв).
OL3X 
VIP


З нами з: 25.11.15
Востаннє: 22.05.19
Повідомлень: 439

2017-07-29 12:41  
Шикарний фільм
IronBee 
Поважний учасник


З нами з: 08.02.10
Востаннє: 23.05.19
Повідомлень: 219

2017-07-29 15:18  
Фільм супер)
androgyny 
Новенький


З нами з: 16.01.16
Востаннє: 07.04.19
Повідомлень: 1

2017-08-29 23:10  
Відсутня англійська звукова доріжка
RudiUA 
Новенький


З нами з: 02.04.13
Востаннє: 19.05.19
Повідомлень: 15

2017-09-06 22:10  
Якісний фільм, вартий перегляду
Uberwinder 
VIP


З нами з: 18.11.16
Востаннє: 23.05.19
Повідомлень: 277

2017-10-14 09:00  
Видовищний і цікавий фільм, дякую за реліз!
fsy777 
Частий відвідувач


З нами з: 16.01.12
Востаннє: 23.05.19
Повідомлень: 37

2018-03-29 09:02  
Я обожнюю "історично-фентезійні" фільми. Але цей взагалі не сподобався( Він видовищний, звичайно, але...
Відгуки, бачу, хороші. Можливо, справа в тому, що той чувак, як Король Артур мною зовсім не сприймався

Ваш часовий пояс: GMT + 2 Години

Нова тема   Відповісти