Цвинтар домашніх тварин / Pet Sematary (1989) 1080p Ukr/Eng | Sub Eng

Нові коментарі

Нова тема   Відповісти
Автор Повідомлення
Anubys 
VIP


З нами з: 09.11.09
Востаннє: 22.08.17
Повідомлень: 331

2017-07-27 20:41  
Цвинтар домашніх тварин / Pet Sematary (1989) 1080p Ukr/Eng | Sub Eng

Цвинтар домашніх тварин / Pet Sematary (1989) 1080p Ukr/Eng | Sub Eng


Жанр: жахи, трилер
Країна: США



Кінокомпанія: Paramount Pictures, Laurel Productions
Режисер: Мері Ламберт
Актори: Дейл Мідкіфф , Фред Гвін , Денис Кросбі , Бред Грінквіст , Майкл Ломбард , Міко Хьюз , Блейз Бердаль , Сьюзен Бломмаєрт , Тара Кларк , Kavi Raz , Мері Луїз Уїлсон

Сюжет:
Сім'я Луїса Кріда, лікаря-терапевта з Чікаго, переїзджає в містечко Ладлоу. На новому місці Луїс знаходить собі хорошого товариша, старого Джуда Крендла, і одного разу старий відводить сім'ю Луїса до місцевого кладовища домашніх тварин. Жінці Луїса, Рейчел, дуже не подобається це місце, бо вона не любить кладовища, смерть та все, що з цим пов'язане.


Тривалість: 01:42:45
Якість:
Відео:
кодек:
розмір кадру: 1920 х 1080
бітрейт: 18 мб/с

Аудіо # 1:
мова: українська
переклад: багатоголосий закадровий
кодек: 2.0
бітрейт: 192 кб/с

Аудіо # 2:
мова: англійська
переклад: оригінал
кодек: 5.1
бітрейт: 1509 кб/с

Аудіо # 3:
мова: англійська
переклад: оригінал - коментарі режисера
кодек: 2.0
бітрейт: 224 кб/с

Джерело озвучення:


Субтитри:
мова: англійська
тип: програмні (м'які)
формат: *.srt
Info
General
Unique ID : 199638800838336380742542888424407051313 (0x963108D25856FB79BB39FC39AACC2C31)
Complete name : I:\Pet Sematary 1989 1080p Ukr 2xEng Sub Eng.
Format :
Format version : Version 4 / Version 2
File size : 14.3 GiB
Duration : 1 h 42 min
Overall bit rate : 19.9 Mb/s
Encoded date : UTC 2017-07-25 17:12:29
Writing application : mkvmerge v13.0.0 ('The Juggler') 64bit
Writing library : libebml v1.3.4 + libmatroska v1.4.5
Cover : Yes
Attachments : cover.jpeg

Video
ID : 1
Format : AVC
Format/Info : Advanced Video Codec
Format profile : [email protected]
Format settings, CABAC : Yes
Format settings, ReFrames : 4 frames
Codec ID : V_MPEG4/ISO/AVC
Duration : 1 h 42 min
Bit rate : 18.0 Mb/s
Width : 1 920 pixels
Height : 1 080 pixels
Display aspect ratio : 16:9
Frame rate mode : Constant
Frame rate : 23.976 (24000/1001) FPS
Color space : YUV
Chroma subsampling : 4:2:0
Bit depth : 8 bits
Scan type : Progressive
Bits/(Pixel*Frame) : 0.362
Stream size : 12.9 GiB (90%)
Writing library : core 129 r2230 1cffe9f
Encoding settings : cabac=1 / ref=4 / deblock=1:-3:-3 / analyse=0x3:0x113 / me=umh / subme=10 / psy=1 / psy_rd=1.00:0.00 / mixed_ref=1 / me_range=48 / chroma_me=1 / trellis=2 / 8x8dct=1 / cqm=0 / deadzone=21,11 / fast_pskip=1 / chroma_qp_offset=-2 / threads=6 / lookahead_threads=1 / sliced_threads=0 / nr=0 / decimate=1 / interlaced=0 / bluray_compat=0 / constrained_intra=0 / bframes=8 / b_pyramid=2 / b_adapt=2 / b_bias=0 / direct=3 / weightb=1 / open_gop=0 / weightp=2 / keyint=240 / keyint_min=23 / scenecut=40 / intra_refresh=0 / rc_lookahead=40 / rc=2pass / mbtree=1 / bitrate=18000 / ratetol=1.0 / qcomp=0.60 / qpmin=10 / qpmax=51 / qpstep=4 / cplxblur=20.0 / qblur=0.5 / vbv_maxrate=50000 / vbv_bufsize=50000 / nal_hrd=none / ip_ratio=1.40 / aq=1:1.00
Language : English
Default : Yes
Forced : No

Audio #1
ID : 2
Format : AC-3
Format/Info : Audio Coding 3
Format settings, Endianness : Big
Codec ID : A_AC3
Duration : 1 h 42 min
Bit rate mode : Constant
Bit rate : 192 kb/s
Channel(s) : 2 channels
Channel positions : Front: L R
Sampling rate : 48.0 kHz
Frame rate : 31.250 FPS (1536 spf)
Bit depth : 16 bits
Compression mode : Lossy
Stream size : 141 MiB (1%)
Title : багатоголосний, закадровий [K1]
Service kind : Complete Main
Default : Yes
Forced : No

Audio #2
ID : 3
Format :
Format/Info : Digital Theater Systems
Mode : 16
Format settings, Endianness : Big
Codec ID : A_DTS
Duration : 1 h 42 min
Bit rate mode : Constant
Bit rate : 1 509 kb/s
Channel(s) : 6 channels
Channel positions : Front: L C R, Side: L R, LFE
Sampling rate : 48.0 kHz
Frame rate : 93.750 FPS (512 spf)
Bit depth : 24 bits
Compression mode : Lossy
Stream size : 1.08 GiB (8%)
Title : Original [ 5.1 @ 1509 kbps]
Language : English
Default : No
Forced : No

Audio #3
ID : 4
Format : AC-3
Format/Info : Audio Coding 3
Format settings, Endianness : Big
Codec ID : A_AC3
Duration : 1 h 42 min
Bit rate mode : Constant
Bit rate : 224 kb/s
Channel(s) : 2 channels
Channel positions : Front: L R
Sampling rate : 48.0 kHz
Frame rate : 31.250 FPS (1536 spf)
Bit depth : 16 bits
Compression mode : Lossy
Stream size : 165 MiB (1%)
Title : Commentary by Director Mary Lambert [ 2.0 @ 224 kbps]
Language : English
Service kind : Complete Main
Default : No
Forced : No

Text
ID : 5
Format : UTF-8
Codec ID : S_TEXT/UTF8
Codec ID/Info : UTF-8 Plain Text
Duration : 1 h 38 min
Bit rate : 33 b/s
Count of elements : 771
Stream size : 24.5 KiB (0%)
Language : English
Default : No
Forced : No

Menu
00:00:00.000 : en:00:00:00.000
00:03:04.183 : en:00:03:04.183
00:09:57.888 : en:00:09:57.888
00:17:25.127 : en:00:17:25.127
00:25:07.255 : en:00:25:07.255
00:33:45.940 : en:00:33:45.940
00:40:50.531 : en:00:40:50.531
00:44:18.697 : en:00:44:18.697
00:47:38.522 : en:00:47:38.522
00:53:32.542 : en:00:53:32.542
01:00:08.938 : en:01:00:08.938
01:09:11.939 : en:01:09:11.939
01:16:45.100 : en:01:16:45.100
01:21:37.976 : en:01:21:37.976
01:26:33.062 : en:01:26:33.062
01:28:28.469 : en:01:28:28.469
01:30:20.248 : en:01:30:20.248
01:35:37.898 : en:01:35:37.898
01:39:35.594 : en:01:39:35.594
Скріншоти



Подяка пану:krigg070 за звукову доріжку з його роздачі.

Джерело: &
Особиста оцінка: 10 - без зайвих вагань рекомендую всім!



Срібний реліз (на рейтинг впливає 50% завантаженого)
 Трекер:    Зареєстрований   

Завантажити / скачати фільм українською



відео для новачків



 Зареєстрований:   2017-07-27 20:41
 Розмір:   14.3 GB 
 Оцінка фільму:   10/10 (Голосів: 2)
   
Інші релізи
Lyolic 
Свій


З нами з: 04.08.09
Востаннє: 20.08.17
Повідомлень: 53

2017-07-27 22:52  
Цей шедевр треба читати!
Взагалі зараз навіть не пригадаю не однієї екранізації Кінга, щоб хоч зрівнялась з книгою...

st_78 
VIP


З нами з: 18.11.16
Востаннє: 22.08.17
Повідомлень: 714

2017-07-27 23:01  
Втеча з Шоушенка?
Lyolic 
Свій


З нами з: 04.08.09
Востаннє: 20.08.17
Повідомлень: 53

2017-07-27 23:03  
st_78
Піймали Happy Не читав нажаль...

kurmunke 
Свій


З нами з: 06.11.13
Востаннє: 21.08.17
Повідомлень: 68

2017-07-27 23:07  
Цитата:
Взагалі зараз навіть не пригадаю не однієї екранізації Кінга, щоб хоч зрівнялась з книгою...

Рекомендую "зелена миля" і міні серіал "11/22/63"

Anubys 
VIP


З нами з: 09.11.09
Востаннє: 22.08.17
Повідомлень: 331

2017-07-27 23:08  
Потрібно все оцінювати як самостійні витвори, а не плюватись на фільм бо книга краща.
Книга завжди була є і буде кращою за фільм, бо коли читаєте книгу, то у кожного своя уява.

vepr91 
Новенький


З нами з: 15.10.11
Востаннє: 22.08.17
Повідомлень: 20

2017-07-27 23:19  
Lyolic
"Втеча з Шоушенка", Зелена миля", "11/22/63", "Сяйво" ('97)

Lyolic 
Свій


З нами з: 04.08.09
Востаннє: 20.08.17
Повідомлень: 53

2017-07-27 23:21  
Anubys
А я про фільм нічого й не казав...

Бляха, про Зелену милю забув Happy І теж не читав...

Anubys 
VIP


З нами з: 09.11.09
Востаннє: 22.08.17
Повідомлень: 331

2017-07-27 23:53  
Можу ще викласти Remux фільму Воно, якщо хтось хоче звісно.
omm 
Відео Гуртом - фільмокрай
Відео Гуртом - фільмокрай


З нами з: 12.06.12
Востаннє: 22.08.17
Повідомлень: 2198

2017-07-28 08:56  
"Залишся зі мною" - екранізація Кінґа, теж достойна. Є в топ-250 імдб.
Так як екранізують Кінґа - дай бог щоб кожного екранізовували

igor911 
Відео Гуртом
Відео Гуртом


З нами з: 18.01.08
Востаннє: 22.08.17
Повідомлень: 7318

2017-07-28 09:52  
Anubys, треба замінити скріншоти, за Правилами розділу вони мають бути у форматі png.
Anubys 
VIP


З нами з: 09.11.09
Востаннє: 22.08.17
Повідомлень: 331

2017-07-28 10:07  
Виправив.
Ваш часовий пояс: GMT + 2 Години

Нова тема   Відповісти