Лоґан: Росомаха / Logan (2017) 720p-mini (60 fps)

Нові коментарі

Нова тема   Відповісти
Автор Повідомлення
Drool 
VIP


З нами з: 17.04.10
Востаннє: 20.10.17
Повідомлень: 1402

2017-07-27 11:13  
Лоґан: Росомаха / Logan (2017) 720p-mini (60 fps)

Жанр: бойовик, драма, фантастика
Країна: США, Канада, Австралія


Підлітки до 16 років допускаються до фільму тільки у супроводі одного з батьків, або законного представника
Обмеження - до 16 років потрібний супровід батька або дорослого опікуна (вік може змінюватися в деяких регіонах). Цей рейтинг показує, що оціночна комісія вирішила, що деякий матеріал цього фільму призначається для дорослих. Батьки повинні більше дізнатися про фільм перш, ніж узяти на його перегляд дітей. Рейтинг R також може бути призначений унаслідок використовуваної у фільмі мови, теми, насильства, сексу або зображення вживання наркотиків.
Кінокомпанія: 20th Century Fox, Marvel Entertainment, TSG
Режисер: Джеймс Менґолд
Актори: Г'ю Джекман, Патрік Стюарт, Бойд Голбрук, Дафні Кін, Стівен Мерчант, Річард Е. Ґрант, Доріс Морґадо, Елізабет Родріґез, Ерік Ла Салль, Даніел Бернхардт

Сюжет:
Минуло дуже багато років, і старому Лоґану потрібно вступити в бій проти давнього суперника. Цього разу Росомаха повинен не тільки боротися за себе, а й подбати про старого хворого професора Ікс і юну мутантку Ікс-23. Але навіть Росомаха колись повинен постаріти, і зараз він вже зовсім не той, яким був в молодості. Колись і довге життя Лоґана повинно скінчитись. Але перед тим, як померти, він віддасть всі сили, щоб убити тих, хто хоче нашкодити його близьким.


Тривалість: 02:17:23
Якість: 720p-mini
Відео:
кодек:
розмір кадру: 1280 х 536
бітрейт: 4349 кб/с
crf: 16.5
кадрів на секунду: 60.000 к/с

Аудіо:
мова: українська
переклад: професійний дубльований
кодек: 5.1
бітрейт: 448 кб/с

Субтитри:
мова: українська
тип: програмні (м'які) форсовані
формат: *.srt
Info
Код:
General
Unique ID                                : 255725305107929354036778907351212793084 (0xC062E6FACE46E6675A20351FCA4A9CFC)
Complete name                            : /mnt/disk_d/Video/Logan.2017.Ukr.Dub..720p-mini.60fps.
Format                                   :
Format version                           : Version 4 / Version 2
File size                                : 4.70 GiB
Duration                                 : 2h 17mn
Overall bit rate                         : 4 894 Kbps
Movie name                               : Лоґан: Росомаха / Logan (2017) 720p-mini [60 fps] | NNNB
Encoded date                             : UTC 2017-07-27 07:39:22
Writing application                      : mkvmerge v14.0.0 ('Flow') 64bit
Writing library                          : libebml v1.3.4 + libmatroska v1.4.7
Attachements                             : cover.jpg
DURATION                                 : 01:38:50.730000000
NUMBER_OF_FRAMES                         : 3
NUMBER_OF_BYTES                          : 80
_STATISTICS_WRITING_APP                  : mkvmerge v14.0.0 ('Flow') 64bit
_STATISTICS_WRITING_DATE_UTC             : 2017-07-27 07:39:22
_STATISTICS_TAGS                         : BPS DURATION NUMBER_OF_FRAMES NUMBER_OF_BYTES

Video
ID                                       : 1
Format                                   : AVC
Format/Info                              : Advanced Video Codec
Format profile                           : [email protected]
Format settings, CABAC                   : Yes
Format settings, ReFrames                : 9 frames
Codec ID                                 : V_MPEG4/ISO/AVC
Duration                                 : 2h 17mn
Bit rate                                 : 4 349 Kbps
Width                                    : 1 280 pixels
Height                                   : 536 pixels
Display aspect ratio                     : 2.40:1
Frame rate mode                          : Constant
Frame rate                               : 60.000 fps
Color space                              : YUV
Chroma subsampling                       : 4:2:0
Bit depth                                : 8 bits
Scan type                                : Progressive
Bits/(Pixel*Frame)                       : 0.106
Stream size                              : 4.17 GiB (89%)
Title                                    : Лоґан: Росомаха / Logan (2017) 720p-mini [60 fps] | NNNB
Writing library                          : core 146 r2538 121396c
Encoding settings                        : cabac=1 / ref=9 / deblock=1:0:0 / analyse=0x3:0x113 / me=umh / subme=10 / psy=1 / psy_rd=1.00:0.00 / mixed_ref=1 / me_range=24 / chroma_me=1 / trellis=2 / 8x8dct=1 / cqm=0 / deadzone=21,11 / fast_pskip=0 / chroma_qp_offset=-2 / threads=12 / lookahead_threads=1 / sliced_threads=0 / nr=0 / decimate=1 / interlaced=0 / bluray_compat=0 / constrained_intra=0 / bframes=5 / b_pyramid=2 / b_adapt=2 / b_bias=0 / direct=3 / weightb=1 / open_gop=0 / weightp=2 / keyint=250 / keyint_min=25 / scenecut=40 / intra_refresh=0 / rc=crf / mbtree=0 / crf=16.5 / qcomp=0.60 / qpmin=0 / qpmax=69 / qpstep=4 / ip_ratio=1.40 / pb_ratio=1.30 / aq=3:0.80
Default                                  : Yes
Forced                                   : Yes
DURATION                                 : 02:17:23.234000000
NUMBER_OF_FRAMES                         : 494594
NUMBER_OF_BYTES                          : 4577396366
_STATISTICS_WRITING_APP                  : mkvmerge v14.0.0 ('Flow') 64bit
_STATISTICS_WRITING_DATE_UTC             : 2017-07-27 07:39:22
_STATISTICS_TAGS                         : BPS DURATION NUMBER_OF_FRAMES NUMBER_OF_BYTES

Audio
ID                                       : 2
Format                                   : AC-3
Format/Info                              : Audio Coding 3
Mode extension                           : CM (complete main)
Format settings, Endianness              : Big
Codec ID                                 : A_AC3
Duration                                 : 2h 17mn
Bit rate mode                            : Constant
Bit rate                                 : 448 Kbps
Channel(s)                               : 6 channels
Channel positions                        : Front: L C R, Side: L R, LFE
Sampling rate                            : 48.0 KHz
Compression mode                         : Lossy
Stream size                              : 440 MiB (9%)
Title                                    : 5.1 @ 448 kbps
Language                                 : Ukrainian
Default                                  : Yes
Forced                                   : Yes

Text
ID                                       : 3
Format                                   : UTF-8
Codec ID                                 : S_TEXT/UTF8
Codec ID/Info                            : UTF-8 Plain Text
Title                                    : Forced
Language                                 : Ukrainian
Default                                  : Yes
Forced                                   : Yes
Скріншоти


Джерело відеоряду:
Особиста оцінка: 9 - давно не бачив настільки якісне кіно


 Трекер:    Зареєстрований   

Завантажити / скачати фільм українською



відео для новачків



 Зареєстрований:   2017-07-27 11:13
 Розмір:   4.7 GB 
 Оцінка фільму:   9/10 (Голосів: 10)
   
Інші релізи
   Лоґан: Росомаха / Logan (2017) AVC Ukr/Eng | Sub Ukr/Eng 11FrYkT  32 / 0   2.57 GB   2017-06-30 16:46 
   Лоґан: Росомаха / Logan (2017) 720p Ukr/Eng | Sub Ukr/Eng 11FrYkT  15 / 0   6.61 GB   2017-06-30 16:36 
   Лоґан: Росомаха / Logan (2017) 1080p Ukr/Eng | Sub Ukr/Eng Electroz  20 / 2   13.27 GB   2017-06-30 13:15 
   Лоґан: Росомаха / Logan (2017) Covenant  28 / 0   1.45 GB   2017-05-30 09:22 
Equalizer 
Новенький


З нами з: 11.10.08
Востаннє: 18.10.17
Повідомлень: 9

2017-07-27 15:19  
а буде 1080p 60fps?
Drool 
VIP


З нами з: 17.04.10
Востаннє: 20.10.17
Повідомлень: 1402

2017-07-27 17:16  
Equalizer написано:
а буде 1080p 60fps?
Ніхто не заважає вам знайти відеоряд або відкодувати самому Wink (1)
piliq 
Новенький


З нами з: 04.02.12
Востаннє: 20.10.17
Повідомлень: 12

2017-07-28 17:57  
Drool написано:
Ніхто не заважає вам знайти відеоряд або відкодувати самому

Сильна відповідь... То для чого викладаєш реліз? Напиши "існує Росомаха / Logan (2017), шукайте собі самі"...

Drool 
VIP


З нами з: 17.04.10
Востаннє: 20.10.17
Повідомлень: 1402

2017-07-29 02:06  
piliq написано:
Сильна відповідь... То для чого викладаєш реліз? Напиши "існує Росомаха / Logan (2017), шукайте собі самі"...
Тому що ніхто не заважав мені відкодувати або знайти потрібний відеоряд.
pvm 
Поважний учасник


З нами з: 05.03.10
Востаннє: 20.10.17
Повідомлень: 164

2017-08-16 22:24  
piliq
Не дивуйся, це стандартна відповідь на толоці місцевих розумак.

Drool 
VIP


З нами з: 17.04.10
Востаннє: 20.10.17
Повідомлень: 1402

2017-08-17 16:09  
pvm написано:
Не дивуйся, це стандартна відповідь на толоці місцевих розумак.
Сказав той, в кого власних релізів нуль Wide grin
lmbt 
Новенький


З нами з: 30.03.12
Востаннє: 18.10.17
Повідомлень: 1

2017-08-18 21:35  
piliq
Цитата:
То для чого викладаєш реліз? Напиши "існує Росомаха / Logan (2017), шукайте собі самі"...

Я в шоке. Виклали релiз, ещо носом крутят Happy Бiдло вездэ Happy

pvm65 
Частий відвідувач


З нами з: 02.01.16
Востаннє: 20.10.17
Повідомлень: 49

2017-08-19 10:27  
Не дивуйся, це стандартна відповідь на толоці місцевих розумак.
Сказав той, в кого власних релізів нуль

Що і потрібно було довести стосовно інших хамство і зверхність, стиль місцевих розумак.

Drool 
VIP


З нами з: 17.04.10
Востаннє: 20.10.17
Повідомлень: 1402

2017-08-19 12:21  
pvm65 написано:
Що і потрібно було довести стосовно інших хамство і зверхність, стиль місцевих розумак.
Логічна ремарка, що ніхто нікому не заважає створити власний варіант відеоряду з потрібною доріжкою - це хамство? А може хамство - це зверхньо висловлюватись щодо тих, хто вам безкоштовно і добровільно створює роздачі? Чи може хамство - це не створити жодної роздачі і цвірінькати тут про місцевих розумак з двох різних акаунтів?
pvm65 
Частий відвідувач


З нами з: 02.01.16
Востаннє: 20.10.17
Повідомлень: 49

2017-08-24 15:17  
"Логічна ремарка", а ніхто не просив про ремарку. Людина спитала, можна було написати "Ні", а не хамити, чи то робити робити "Логічну ремарку".
Ну і прошу вказати, де прописано, що кількість(і саме яка кількість) релізів дає право на хамство("Логічні ремарки"). А "цвірінькати" і хамити будеш до своїх батьків.

Drool 
VIP


З нами з: 17.04.10
Востаннє: 20.10.17
Повідомлень: 1402

2017-08-24 23:39  
pvm65, логічну ремарку я написав не тобі, народному робінгуду, а тому, хто задав питання. Якщо він не задоволений моєю відповіддю - він може висловити свою думку стосовно цього. Щодо прописаної кількості - мушу визнати, що для твого хамства, як виявляється, не потрібно мати жодного створеного релізу. Зате тобі, синку, мабуть, право хамити дають акаунти-клони. Мої батьки вже мертві, тому раджу тобі звернутися до своїх за порадами, як себе вести на людях.
Ваш часовий пояс: GMT + 2 Години

Нова тема   Відповісти