П’ята влада / The Fifth Estate (2013) 1080p Ukr/Eng | Sub Eng

Нові коментарі

Нова тема   Відповісти
Автор Повідомлення
IronBee 
Поважний учасник


З нами з: 08.02.10
Востаннє: 20.10.19
Повідомлень: 225

2017-07-26 17:43  
П’ята влада / The Fifth Estate (2013) 1080p Ukr/Eng | Sub Eng



Жанр: біографічний, драма, трилер
Країна: США, Індія, Бельгія



Кінокомпанія: DreamWorks SKG, Reliance Entertainment, Participant Media
Режисер: Білл Кондон
Актори: Бенедикт Камбербетч, Даніель Брюль, Девід Тьюліс, Алісія Вікандер, Лора Лінні, Стенлі Тучі, Ентоні Макі, Пітер Капальді, Моріц Бляйбтрой, Джеймі Блеклі

Сюжет:
У світі, де інформація цінується понад усе, а витік відомостей під грифом «секретно» може викликати незворотні наслідки, сайт WikiLeaks назавжди змінив правила гри. Фільм, заснований на реальних подіях, розповідає про спробу викрити державну корупцію і брехню влади, яка перетворила інтернет-стартап в одну з найвідоміших і обговорюваних організацій 21-го століття. За перші роки існування WikiLeaks оприлюднив більше таємниць, ніж найвпливовіші у світі ЗМІ разом узяті, розкриваючи ганебні секрети державних служб і фінансові злочини корпорацій. Але коли засновники сайту отримали доступ до найбільшого засекреченого архіву США, їм належало знайти для себе відповідь на одне з найважливіших питань сучасності: яка ціна таємниці у вільному суспільстві - і яка ціна її розголошення?


Тривалість: 02:08:15
Якість: 1080p
Відео:
кодек:
розмір кадру: 1920 х 800
бітрейт: 12 Mб/с

Аудіо # 1:
мова: українська (Новий канал)
переклад: професійний дубльований
кодек: 2.0
бітрейт: 192 кб/с

Аудіо # 2:
мова: англійська
переклад: оригінал
кодек: 5.1
бітрейт: 1509 кб/с

Аудіо # 3:
мова: англійська (описова)
переклад: оригінал
кодек: 2.0
бітрейт: 320 кб/с

Субтитри:
мова: англійська
тип: програмні (м'які)
формат: *.srt
Info
General
Unique ID : 238548260754054007402505606683296482346 (0xB376B94EAD6DC3EB99163ED3B95B442A)
Complete name : E:\Films\The Fifth Estate (2013) 1080p Ukr Eng[Hurtom] .
Format :
Format version : Version 4 / Version 2
File size : 12.6 GiB
Duration : 2 h 8 min
Overall bit rate : 14.0 Mb/s
Movie name : The Fifth Estate (2013) - Release for HDCLUB
Encoded date : UTC 2017-07-25 17:50:12
Writing application : v14.0.0 ('Flow') 64bit
Writing library : libebml v1.3.4 + v1.4.5

Video
ID : 1
Format : AVC
Format/Info : Advanced Video Codec
Format profile : [email protected]
Format settings, CABAC : Yes
Format settings, ReFrames : 5 frames
Codec ID : V_MPEG4/ISO/AVC
Duration : 2 h 8 min
Bit rate : 12.0 Mb/s
Width : 1 920 pixels
Height : 800 pixels
Display aspect ratio : 2.40:1
Frame rate mode : Constant
Frame rate : 23.976 (24000/1001) FPS
Color space : YUV
Chroma subsampling : 4:2:0
Bit depth : 8 bits
Scan type : Progressive
Bits/(Pixel*Frame) : 0.326
Stream size : 10.7 GiB (86%)
Title : The Fifth Estate (2013) - Release for HDCLUB
Writing library : core 133 r2334 a3ac64b
Encoding settings : cabac=1 / ref=5 / deblock=1:-3:-3 / analyse=0x3:0x113 / me=tesa / subme=11 / psy=1 / psy_rd=1.10:0.00 / mixed_ref=1 / me_range=32 / chroma_me=1 / trellis=2 / 8x8dct=1 / cqm=0 / deadzone=21,11 / fast_pskip=0 / chroma_qp_offset=-4 / threads=12 / lookahead_threads=2 / sliced_threads=0 / nr=0 / decimate=0 / interlaced=0 / bluray_compat=0 / constrained_intra=0 / bframes=8 / b_pyramid=2 / b_adapt=2 / b_bias=0 / direct=3 / weightb=1 / open_gop=0 / weightp=2 / keyint=250 / keyint_min=23 / scenecut=40 / intra_refresh=0 / rc=2pass / mbtree=0 / bitrate=12000 / ratetol=1.0 / qcomp=0.65 / qpmin=0 / qpmax=69 / qpstep=4 / cplxblur=20.0 / qblur=0.5 / ip_ratio=1.20 / pb_ratio=1.30 / aq=1:0.85
Language : English
Default : Yes
Forced : No

Audio #1
ID : 2
Format : AC-3
Format/Info : Audio Coding 3
Mode extension : CM (complete main)
Format settings, Endianness : Big
Codec ID : A_AC3
Duration : 2 h 8 min
Bit rate mode : Constant
Bit rate : 192 kb/s
Channel(s) : 2 channels
Channel positions : Front: L R
Sampling rate : 48.0 kHz
Frame rate : 31.250 FPS (1536 spf)
Bit depth : 16 bits
Compression mode : Lossy
Stream size : 176 MiB (1%)
Default : Yes
Forced : No

Audio #2
ID : 3
Format :
Format/Info : Digital Theater Systems
Mode : 16
Format settings, Endianness : Big
Codec ID : A_DTS
Duration : 2 h 8 min
Bit rate mode : Constant
Bit rate : 1 509 kb/s
Channel(s) : 6 channels
Channel positions : Front: L C R, Side: L R, LFE
Sampling rate : 48.0 kHz
Frame rate : 93.750 FPS (512 spf)
Bit depth : 24 bits
Compression mode : Lossy
Delay relative to video : 11 ms
Stream size : 1.35 GiB (11%)
Title : 5.1 @ 1536 kbps
Language : English
Default : No
Forced : No

Audio #3
ID : 4
Format : AC-3
Format/Info : Audio Coding 3
Format profile : Dolby Digital
Mode extension : CM (complete main)
Format settings, Endianness : Big
Codec ID : A_AC3
Duration : 2 h 8 min
Bit rate mode : Constant
Bit rate : 320 kb/s
Channel(s) : 2 channels
Channel positions : Front: L R
Sampling rate : 48.0 kHz
Frame rate : 31.250 FPS (1536 spf)
Bit depth : 16 bits
Compression mode : Lossy
Stream size : 294 MiB (2%)
Title : 2.0 @ 320 kbps - Descriptive
Language : English
Default : No
Forced : No

Text
ID : 5
Format : UTF-8
Codec ID : S_TEXT/UTF8
Codec ID/Info : UTF-8 Plain Text
Duration : 2 h 1 min
Bit rate : 74 b/s
Count of elements : 1989
Stream size : 66.2 KiB (0%)
Language : English
Default : No
Forced : No

Menu
00:00:00.000 : en:00:00:00.000
00:05:53.144 : en:00:05:53.144
00:12:18.446 : en:00:12:18.446
00:19:35.007 : en:00:19:35.007
00:26:17.993 : en:00:26:17.993
00:34:17.472 : en:00:34:17.472
00:40:31.720 : en:00:40:31.720
00:46:53.852 : en:00:46:53.852
00:54:58.336 : en:00:54:58.336
01:01:29.852 : en:01:01:29.852
01:06:38.119 : en:01:06:38.119
01:14:39.266 : en:01:14:39.266
01:20:30.951 : en:01:20:30.951
01:32:05.978 : en:01:32:05.978
01:39:26.085 : en:01:39:26.085
01:47:48.670 : en:01:47:48.670
01:56:02.622 : en:01:56:02.622
02:02:54.909 : en:02:02:54.909
Скріншоти



Подяка панам OlegCena за запис звуку з ТБ та Gelios'у за зведення.

Джерело: &
Особиста оцінка: 0 - не дивився


 Трекер:    Зареєстрований   

Завантажити / скачати фільм українською



відео для новачків



 Зареєстрований:   2017-07-26 17:43
 Розмір:   12.56 GB 
 Оцінка фільму:   8/10 (Голосів: 7)
   
Інші релізи
   П’ята влада / The Fifth Estate (2013) 720p Ukr/Eng | Sub Eng AngryBirdsUA  0 / 0   8.53 GB   2015-05-24 20:26 
   П’ята влада / The Fifth Estate (2013) Gelios  4 / 0   1.45 GB   2015-05-24 17:59 
   П’ята влада / The Fifth Estate (2013) AVC Gelios  3 / 0   1.56 GB   2015-05-24 17:59 
uaxpasha 
VIP


З нами з: 05.08.12
Востаннє: 20.10.19
Повідомлень: 267

2017-07-27 23:56  
Як фільм? Про Wikileaks та Ассанджа знаю, цікаво було б подивитись, але оцінка imdb заохочує до цього
zelmer14 
Новенький


З нами з: 31.10.10
Востаннє: 27.07.19
Повідомлень: 10

2017-09-02 12:13  
Агов нарід, гоу на роздачу будь ласка!
hetzendorf 
Попереджень: 2
Попереджень: 2 


З нами з: 23.07.15
Востаннє: 21.10.19
Повідомлень: 2556

2017-10-16 01:19  
Доволі непоганий, змістовний фільм. Відклав до колекції.
9/10

Цікаво, що за прогою вони повсякчас користувалися, ота з консольним інтерфейсом на ncurses?

hetzendorf 
Попереджень: 2
Попереджень: 2 


З нами з: 23.07.15
Востаннє: 21.10.19
Повідомлень: 2556

2017-10-17 00:12  
Взагалі дивно, чому нікого не насторожив таки момент: борцун за правду Ассанж повсякчас повторює «Люди мусять знати правду!», при цьому сам про свій проект постійно бреше @[email protected] Отже, ще один приклад, як проект прихильника й носія лівих ідей призводить врешті-решт до руйнівних та деструктивних наслідків.
Ваш часовий пояс: GMT + 2 Години

Нова тема   Відповісти