Пробудження / Passengers (2016) UHD Remux 4K 2160p HDR H.265 Ukr/Eng | Sub Ukr/Eng

Нові коментарі

Нова тема   Відповісти
Автор Повідомлення
Babamin 
Частий відвідувач


З нами з: 29.12.15
Востаннє: 20.08.17
Повідомлень: 26

2017-07-26 02:06  
Пробудження / Passengers (2016) UHD Remux 4K 2160p HDR HEVC Ukr/Eng | Sub Eng

Пробудження / Passengers (2016) UHD Remux 4K 2160p HDR H.265 Ukr/Eng | Sub Ukr/Eng


Жанр: фантастика, драма, мелодрама, пригодницький
Країна: США



Кінокомпанія: Columbia Pictures, LStar Capital, Village Roadshow Pictures
Режисер: Мортен Тільдум
Актори: Дженніфер Лоуренс, Кріс Пратт, Майкл Шин, Енді Ґарсіа, Лоуренс Фішберн, Джеймі Сорічеллі, Кімберлі Баттіста, Аврора Перріно та інші.

Сюжет:
Космічний корабель з п'ятьма тисячами пасажирів на борту, занурених на час польоту в штучний сон, тримає курс на планету, яка стане для них новим будинком. Все йде за планом, але через збій системи двоє пасажирів несподівано прокидаються і розуміють, що до кінцевого пункту подорожі - 90 років шляху, і їм судилося залишок життя провести удвох в розкішних інтер'єрах корабля, оснащеного за останнім словом техніки. Поступово Джима і Аврору починає непереборно тягнути один до одного, але корабель потрапляє в біду, і тепер в їхніх руках - життя і доля всіх мешканців корабля.

Тривалість: 01:56:10
Якість: 4K UltraHD Remux 2160p
Контейнер:

Відео:
кодек: H.265
розмір кадру: 3840 х 2160
бітрейт: 52884 кб/с
бітова глибина: 10 біт
кольоровий простір: BT.2020 (HDR)

Аудіо # 1:
мова: українська
переклад: професійний дубльований (Blu-ray EUR)
кодек: 5.1
бітрейт: 640 кб/с

Аудіо # 2:
мова: англійська
переклад: оригінал
кодек: TrueHD 7.1 / AC-3 5.1
бітрейт: 4893 кб/с / 640 кб/с

Субтитри # 1-2 (форсовані, повні):
мова: українська (Blu-ray CEE)
тип: програмні (м'які)
формат: *.srt

Субтитри # 3-4 (повні, SDH):
мова: англійська
тип: програмні (м'які)
формат: *.srt
MInfo:

Complete name : Passengers.(2016).Remux.HEVC-4K.2160p.
Format :
Format version : Version 4 / Version 2
File size : 46.8 GiB
Duration : 1 h 56 min
Overall bit rate mode : Variable
Overall bit rate : 57.6 Mb/s
Encoded date : UTC 2017-07-25 21:55:55
Writing application : mkvmerge v12.0.0 ('Trust / Lust') 64bit
Writing library : libebml v1.3.4 + libmatroska v1.4.5

Video
ID : 1
Format : HEVC
Format/Info : High Efficiency Video Coding
Format profile : Main [email protected]@High
Codec ID : V_MPEGH/ISO/HEVC
Duration : 1 h 56 min
Bit rate : 52.9 Mb/s
Width : 3 840 pixels
Height : 2 160 pixels
Display aspect ratio : 16:9
Frame rate mode : Constant
Frame rate : 23.976 (24000/1001) FPS
Color space : YUV
Chroma subsampling : 4:2:0 (Type 2)
Bit depth : 10 bits
Bits/(Pixel*Frame) : 0.266
Stream size : 42.9 GiB (92%)
Language : English
Default : Yes
Forced : No
Color range : Limited
Color primaries : BT.2020
Transfer characteristics : SMPTE ST 2084
Matrix coefficients : BT.2020 non-constant
Mastering display color pri : R: x=0.680000 y=0.320000, G: x=0.265000 y=0.690000, B: x=0.150000 y=0.060000, White point: x=0.312700 y=0.329000
Mastering display luminance : min: 0.0050 cd/m2, max: 4000.0000 cd/m2
Maximum Content Light Level : 1529 cd/m2
Maximum Frame-Average Light : 380 cd/m2

Audio #1
ID : 2
Format : AC-3
Format/Info : Audio Coding 3
Format settings, Endianness : Big
Codec ID : A_AC3
Duration : 1 h 56 min
Bit rate mode : Constant
Bit rate : 640 kb/s
Channel(s) : 6 channels
Channel positions : Front: L C R, Side: L R, LFE
Sampling rate : 48.0 kHz
Frame rate : 31.250 FPS (1536 spf)
Bit depth : 16 bits
Compression mode : Lossy
Delay relative to video : -8 ms
Stream size : 532 MiB (1%)
Title : BD Eur
Language : Ukrainian
Service kind : Complete Main
Default : Yes
Forced : No

Audio #2
ID : 3
Format : TrueHD
Format profile : TrueHD+Atmos / TrueHD
Codec ID : A_TRUEHD
Duration : 1 h 56 min
Bit rate mode : Variable
Bit rate : 4 044 kb/s
Maximum bit rate : 8 229 kb/s
Channel(s) : Object Based / 8 channels
Channel positions : Object Based / Front: L C R, Side: L R, Back: L R, LFE
Sampling rate : / 48.0 kHz
Frame rate : 1 200.000 FPS (40 spf)
Compression mode : Lossless
Stream size : 3.28 GiB (7%)
Title : original
Language : English
Default : No
Forced : No

Text #1
ID : 4
Format : UTF-8
Codec ID : S_TEXT/UTF8
Codec ID/Info : UTF-8 Plain Text
Duration : 1 h 54 min
Bit rate : 1 b/s
Count of elements : 20
Stream size : 880 Bytes (0%)
Title : forced
Language : Ukrainian
Default : Yes
Forced : Yes

Text #2
ID : 5
Format : UTF-8
Codec ID : S_TEXT/UTF8
Codec ID/Info : UTF-8 Plain Text
Duration : 1 h 54 min
Bit rate : 75 b/s
Count of elements : 1282
Stream size : 63.3 KiB (0%)
Title : full
Language : Ukrainian
Default : No
Forced : No

Text #3
ID : 6
Format : UTF-8
Codec ID : S_TEXT/UTF8
Codec ID/Info : UTF-8 Plain Text
Duration : 1 h 45 min
Bit rate : 49 b/s
Count of elements : 1280
Stream size : 37.9 KiB (0%)
Title : full
Language : English
Default : No
Forced : No

Text #4
ID : 7
Format : UTF-8
Codec ID : S_TEXT/UTF8
Codec ID/Info : UTF-8 Plain Text
Duration : 1 h 48 min
Bit rate : 57 b/s
Count of elements : 1619
Stream size : 45.3 KiB (0%)
Title : SDH
Language : English
Default : No
Forced : No

Menu
00:00:00.000 : :1
00:07:04.673 : :2
00:14:38.210 : :3
00:20:33.648 : :4
00:25:06.337 : :5
00:30:30.662 : :6
00:40:47.987 : :7
00:50:23.018 : :8
00:57:28.945 : :9
01:02:54.811 : :10
01:10:47.158 : :11
01:17:48.662 : :12
01:25:17.028 : :13
01:31:45.041 : :14
01:37:53.242 : :15
01:42:18.548 : :16
Скріншоти:









Джерело:


Золотий реліз (завантажене не впливає на рейтинг)
 Трекер:    Зареєстрований   

Завантажити / скачати фільм українською



відео для новачків



 Зареєстрований:   2017-07-26 02:06
 Розмір:   46.77 GB 
 Оцінка фільму:   9.9/10 (Голосів: 15)
   
-_-B_E_N_D_E_R-_- 
Оцифрування книг Гуртом
Оцифрування книг Гуртом


З нами з: 09.01.14
Востаннє: 21.08.17
Повідомлень: 164

2017-07-26 09:17  
І які характеристики пк мають бути, щоб його подивитися?
igor302 
Частий відвідувач


З нами з: 27.10.11
Востаннє: 20.08.17
Повідомлень: 29

2017-07-26 10:11  
-_-B_E_N_D_E_R-_-
Космічними)

EvGaS 
Відео Гуртом - підтримка та поширення
Відео Гуртом - підтримка та поширення


З нами з: 27.02.12
Востаннє: 20.08.17
Повідомлень: 3332

2017-07-26 10:45  
Вирішив поглянути, що ж воно таке, те 4к… Ну, подивимось 1-ший скрін, так, здалеку наче норм… а якщо збільшити до оригінального розміру пікселів? Гм…


Може я десь помиляюся, але виглядає як низькобітрейтова мазня, що вже казати про розтягування зображення. Здалеку — наче й норм. Як зробити масштаб 100% — так собі, як ріденький джейпегчик. Зумувати — е-е-е, вже нікуди, воно вже змазується.
Враження, ніби взяли 1080п і просто нашвидку розтягли зображення та наплодили пікселів. Бо якоїсь кардинально якісної різниці між цим і 1080п не побачив — бо воно й виглядає як якісне фуллШД типу БД-ремуксу, де пікселі корисно використані, а не просто є для компанії.

Чи глядач побачить різницю? Наврядчи. Позитив буде хіба що для тих, у кого є якісь 4к екрани, але з поганеньким софтом масштабування зображення чи слабкою апаратною потужністю. Тоді таке наперед зумоване фуллШД до 4к буде виглядати краще за те, аби просто дивитись фуллШД. Якщо ж з масштабуванням усе добре, то теоретично програвач і «на льоту» зможе якісно масштабувати фуллШД БД-шку до такого 4к.

Звісно, може те все я й помиляюсь, але навіть без збільшення зображення… якщо воно вже «пливе» просто при 100% масштабі, то про яку якість може бути мова? 4К це поки що здебільшого просто маркетингова бульбашка, і до практичної масової реалізації ще доволі далеко.

На мою думку — це або просто апскейл 1080п до 4к, або ж тут інакша проблема — зашумлення пікселів камери, це, грубо кажучи, забагато датчиків на малій площі (мала матриця, мала оптика). Хоча про друге я сумніваюся, цим страждають мобілки, а не професійні камери.

Вимоги може тут й високі… але якість мені здається невідповідною.

Python_3.2 
Новенький


З нами з: 28.12.12
Востаннє: 26.07.17
Повідомлень: 13

2017-07-26 11:38  
А звідки взято?
Первинне джерело було справді UHD BD?
І щодо світлин, вони точно з цього релізу робилися?

Додано через 5 хвилин 28 секунд:

І якщо з UHD BD, і робили саме ви, то якщо можна, деталі як одержували запис

igor911 
Відео Гуртом
Відео Гуртом


З нами з: 18.01.08
Востаннє: 21.08.17
Повідомлень: 7307

2017-07-26 14:41  
Babamin, імдб зовсім ліве, виправ.

Додано через 41 хвилину 11 секунд:

EvGaS, Python_3.2 є інформація, що знімалось на камеру Arri Alexa 65 (6,5k), техпроцес ARRIRAW (6.5K) (source format), Digital Intermediate (4K) (master format), тобто принаймі воно не мало апскейлитись.

Babamin 
Частий відвідувач


З нами з: 29.12.15
Востаннє: 20.08.17
Повідомлень: 26

2017-07-26 16:14  
igor911, виправив.
Confused копіпаст теми, соррі

migelius 
Свій


З нами з: 29.02.08
Востаннє: 19.08.17
Повідомлень: 98

2017-07-26 22:35  
EvGaS

Головне це HDR i Dolby Atmos. А 4kl це вже другорядне ;-)

ivants 
Новенький


З нами з: 05.11.11
Востаннє: 12.08.17
Повідомлень: 5

2017-07-29 11:01  
Для BluRay HDR (не плутати з поняттям HDR в фотографії) потрібен відповідний дисплей з потрібним колірним охопленням. Більшість навіть до sRGB не дотягують
Українець_з_Умані 
Новенький


З нами з: 19.09.10
Востаннє: 21.08.17
Повідомлень: 9

2017-08-15 14:10  
ivants <потрібен відповідний дисплей з потрібним колірним охопленням>
Rolleyes (4)

Ваш часовий пояс: GMT + 2 Години

Нова тема   Відповісти