Укриття / Hideaways (2011) 720p Ukr/Eng

Нові коментарі

Нова тема   Відповісти
Автор Повідомлення
sergiyko.5 
VIP


З нами з: 25.02.16
Востаннє: 17.08.17
Повідомлень: 987

2017-07-26 00:15  
Укриття / Hideaways (2011) 720p Ukr/Eng

Укриття / Hideaways (2011) 720p Ukr/Eng

Жанр: Фентезі, трилер
Країна: Ірландія, Франція, Швеція
Кінокомпанія: Film i Vast, Fidelite Productions, Filmgate Films, Octagon Films
Режисер: Ан'єс Мерле
Актори: Рейчел Херд-Вуд, Гаррі Тредевей, Томас Сенгстер, Сьюзен Лінч

Сюжет:
Джеймс Фурлонг – спадкоємець давнього роду, всі представники якого мали незвичайні здібності. На той час, коли Джеймсу виповнюється 10 років, він вже знає, що він – останній в роду. Його експерименти з власним даром закінчилися трагічно для всіх інших Фурлонгів. Наляканий до смерті, він намагається зрозуміти, що за унікальний дар переданий йому як єдина спадщина.




Тривалість: 01:32:53
Якість:

Відео: кодек: розмір кадру: 1280 х 544 бітрейт: 6450 кб/с
Аудіо: мова: українська переклад: багатоголосий закадровий кодек: 2.0 бітрейт: 192 кб/с
Аудіо # 2: мова: англійська переклад: оригінал кодек: 5.1 бітрейт: 384 кб/с
Джерело озвучення:
Info
General
Unique ID : 251644046532904849307319896485069925846 (0xBD50E165767AD55594E3C673BB092DD6)
Complete name : E:\FILMS\Hideaways.2011.720p..Ukr.Eng.
Format :
Format version : Version 4 / Version 2
File size : 4.56 GiB
Duration : 1 h 32 min
Overall bit rate : 7 025 kb/s
Movie name : Hideaways 2011 720p
Encoded date : UTC 2017-07-25 21:09:01
Writing application : mkvmerge v14.0.0 ('Flow') 64bit
Writing library : libebml v1.3.4 + libmatroska v1.4.5

Video
ID : 1
Format : AVC
Format/Info : Advanced Video Codec
Format profile : High@L4.1
Format settings, CABAC : Yes
Format settings, RefFrames : 8 frames
Codec ID : V_MPEG4/ISO/AVC
Duration : 1 h 32 min
Bit rate : 6 450 kb/s
Width : 1 280 pixels
Height : 544 pixels
Display aspect ratio : 2.35:1
Frame rate mode : Constant
Frame rate : 23.976 (24000/1001) FPS
Color space : YUV
Chroma subsampling : 4:2:0
Bit depth : 8 bits
Scan type : Progressive
Bits/(Pixel*Frame) : 0.386
Stream size : 4.18 GiB (92%)
Title : Hideaways 2011
Writing library : core 129 r2245 bc13772
Encoding settings : cabac=1 / ref=8 / deblock=1:-2:-2 / analyse=0x3:0x113 / me=umh / subme=11 / psy=1 / psy_rd=0.90:0.00 / mixed_ref=1 / me_range=32 / chroma_me=1 / trellis=2 / 8x8dct=1 / cqm=0 / deadzone=21,11 / fast_pskip=0 / chroma_qp_offset=-2 / threads=12 / lookahead_threads=2 / sliced_threads=0 / nr=0 / decimate=0 / interlaced=0 / bluray_compat=0 / constrained_intra=0 / bframes=9 / b_pyramid=2 / b_adapt=2 / b_bias=0 / direct=3 / weightb=1 / open_gop=0 / weightp=2 / keyint=240 / keyint_min=23 / scenecut=40 / intra_refresh=0 / rc=2pass / mbtree=0 / bitrate=6450 / ratetol=1.0 / qcomp=0.70 / qpmin=0 / qpmax=69 / qpstep=4 / cplxblur=20.0 / qblur=0.5 / ip_ratio=1.40 / pb_ratio=1.30 / aq=2:0.80
Language : English
Default : Yes
Forced : No
Color range : Limited
Color primaries : BT.709
Transfer characteristics : BT.709
Matrix coefficients : BT.709

Audio #1
ID : 2
Format : AC-3
Format/Info : Audio Coding 3
Format settings, Endianness : Big
Codec ID : A_AC3
Duration : 1 h 32 min
Bit rate mode : Constant
Bit rate : 192 kb/s
Channel(s) : 2 channels
Channel positions : Front: L R
Sampling rate : 48.0 kHz
Frame rate : 31.250 FPS (1536 SPF)
Bit depth : 16 bits
Compression mode : Lossy
Stream size : 128 MiB (3%)
Title : MOV | NLO TV
Language : Ukrainian
Service kind : Complete Main
Default : Yes
Forced : Yes

Audio #2
ID : 3
Format : AC-3
Format/Info : Audio Coding 3
Format settings, Endianness : Big
Codec ID : A_AC3
Duration : 1 h 32 min
Bit rate mode : Constant
Bit rate : 384 kb/s
Channel(s) : 6 channels
Channel positions : Front: L C R, Side: L R, LFE
Sampling rate : 48.0 kHz
Frame rate : 31.250 FPS (1536 SPF)
Bit depth : 16 bits
Compression mode : Lossy
Stream size : 255 MiB (5%)
Title : Original
Language : English
Service kind : Complete Main
Default : No
Forced : No

Menu
00:00:00.000 : en:Chapter 01
00:08:18.623 : en:Chapter 02
00:17:25.002 : en:Chapter 03
00:27:20.597 : en:Chapter 04
00:37:55.231 : en:Chapter 05
00:47:23.131 : en:Chapter 06
00:58:15.700 : en:Chapter 07
01:07:57.865 : en:Chapter 08
01:16:43.932 : en:Chapter 09
01:28:42.358 : en:Chapter 10
Скріншоти:


Реліз: sergiyko


 Трекер:    Зареєстрований   

Завантажити / скачати фільм українською



відео для новачків



 Зареєстрований:   2017-07-26 00:15
 Розмір:   4.56 GB 
 Оцінка фільму:   9.5/10 (Голосів: 11)
   
Інші релізи
   Укриття / Hideaways (2011) Ukr/Eng Arsenfpu  20 / 0   1.46 GB   2017-08-05 14:31 
leicheman 
Відео Гуртом - підтримка та поширення
Відео Гуртом - підтримка та поширення


З нами з: 03.07.14
Востаннє: 17.08.17
Повідомлень: 1042

2017-07-26 23:36  
наче нічого й такого в цьому фільмі немає, але все одно він дуже цікавий і бажання вимкнути нема.
Ваш часовий пояс: GMT + 2 Години

Нова тема   Відповісти