Доктор Хаус (Сезон 2) / House M.D. (Season 2) (2005-2006) 1080p Ukr/Eng | Sub Eng

Нові коментарі

Нова тема   Відповісти
Автор Повідомлення
Anonymous 







2017-07-25 15:11  

720p: S01 | S02 | S03 | S04 | S05 | S06 | S07 | S08 + Лебедина пісня / Swan song



Доктор Хаус (Сезон 2) / House M.D. (Season 2) (2005-2006) 1080p Ukr/Eng | Sub Eng

Доктор Хаус (Сезон 2) / House M.D. (Season 2) (2005-2006) 1080p Ukr/Eng | Sub Eng


Альтернативні постери





Жанр: драма, детектив, комедія
Країна: США



Кінокомпанія: NBC Universal Television Studio \ FOX
Режисер: Браян Сінгер
Автор ідеї: Девід Шор
Актори: Г'ю Лорі, Роберт Шон Леонард, Омар Еппс, Джессі Спенсер, Дженніфер Моррісон та інші

Сюжет:
Доктор Хаус — блискучий фахівець у галузі захворювань нирок (нефрологія) і інфекційних хвороб, але через деякі особливості його характеру його не можна назвати улюбленцем пацієнтів і колег — він замкнутий, різкий і цинічний, схильний до мізантропії й бунтарства. Він не обтяжує себе дотриманням правил гарного тону й часом здається, що він повністю позбавлений почуття жалю (що, однак, невірно). Найкраще говорить про життєву позицію Хауса цитата доктора Формана: «Він не порушує правила, він їх ігнорує»; а також його улюблене твердження — «Усі брешуть». Як не дивно, саме цей підхід нерідко допомагає йому розібратися у найскладніших і неймовірних випадках, а значить урятувати життя ще одному пацієнтові.


Тривалість: 1 серія: ~44 хв. (цілком серій: 24)
Перелік серій

House M.D. Season 2, Episode 01. Acceptance | «Визнання»
House M.D. Season 2, Episode 02. Autopsy | «Автопсія»
House M.D. Season 2, Episode 03. Humpty Dumpty | «Дурниця»
House M.D. Season 2, Episode 04. TB or Not TB | «Туберкульоз чи не туберкульоз?»
House M.D. Season 2, Episode 05. Daddy's Boy | «Татусин хлопчик»
House M.D. Season 2, Episode 06. Spin | «Крутий поворот»
House M.D. Season 2, Episode 07. Hunting | «Полювання»
House M.D. Season 2, Episode 08. The Mistake | «Помилка»
House M.D. Season 2, Episode 09. Deception | «Обман»
House M.D. Season 2, Episode 10. Failure to Communicate | «Відмова від спілкування»
House M.D. Season 2, Episode 11. Need to Know | «Необхідно знати»
House M.D. Season 2, Episode 12. Distractions | «Відволікаючий подразник»
House M.D. Season 2, Episode 13. Skin Deep | «Зовнішність оманлива»
House M.D. Season 2, Episode 14. Sex Kills | «Секс вбиває»
House M.D. Season 2, Episode 15. Clueless | «Неуцтво»
House M.D. Season 2, Episode 16. Safe | «Безпека»
House M.D. Season 2, Episode 17. All In | «Ва-банк»
House M.D. Season 2, Episode 18. Sleeping Dogs Lie | «Брехня сплячої собаки»
House M.D. Season 2, Episode 19. House vs. God | «Хаус проти Бога»
House M.D. Season 2, Episode 20. Euphoria: Part 1 | «Ейфорія, частина 1»
House M.D. Season 2, Episode 21. Euphoria: Part 2 | «Ейфорія, частина 2»
House M.D. Season 2, Episode 22. Forever | «Навіки»
House M.D. Season 2, Episode 23. Who's Your Daddy? | «Хто твій татко?»
House M.D. Season 2, Episode 24. No Reason | «Без причини»
Якість: 1080p
Відео:
кодек:
розмір кадру: 1920 х 1080
бітрейт: 9 962 кб/с

Аудіо # 1: /
мова: українська
переклад: багатоголосий закадровий
кодек: 2.0
бітрейт: 192 кб/с
Доріжки окремо: (завантажити)

Аудіо # 2:
мова: англійська
переклад: оригінал
кодек: 5.1
бітрейт: 768 кб/с

Субтитри # 1: (SDH)
мова: англійська
тип: програмні (м'які)
формат: *.srt

Субтитри # 2:
мова: англійська
тип: програмні (м'які)
формат: *.srt
Info

General
Unique ID : 251653533007670041861388617201341546355 (0xBD52B51D9BA212FBB73551B2B885BF73)
Format :
Format version : Version 4 / Version 2
File size : 3.33 GiB
Duration : 43 min 42 s
Overall bit rate : 10.9 Mb/s
Encoded date : UTC 2017-07-25 14:46:35
Writing application : v6.1.0 ('Old Devil') built on Mar 2 2013 14:32:37
Writing library : libebml v1.3.0 + v1.4.0
Cover : Yes
Attachments : Cover.jpg

Video
ID : 1
Format : AVC
Format/Info : Advanced Video Codec
Format profile : [email protected]
Format settings, CABAC : Yes
Format settings, ReFrames : 4 frames
Codec ID : V_MPEG4/ISO/AVC
Duration : 43 min 42 s
Bit rate : 9 962 kb/s
Width : 1 920 pixels
Height : 1 080 pixels
Display aspect ratio : 16:9
Frame rate mode : Constant
Frame rate : 23.976 (24000/1001) FPS
Color space : YUV
Chroma subsampling : 4:2:0
Bit depth : 8 bits
Scan type : Progressive
Bits/(Pixel*Frame) : 0.200
Stream size : 2.98 GiB (89%)
Title : House M.D. S02.E01 (2005) 1080p [Ukr.Eng Sub.Eng] [Hurtom]
Writing library : core 142 r2409 d6b4e63
Encoding settings : cabac=1 / ref=4 / deblock=1:-2:-2 / analyse=0x3:0x113 / me=umh / subme=8 / psy=1 / psy_rd=1.00:0.00 / mixed_ref=1 / me_range=16 / chroma_me=1 / trellis=1 / 8x8dct=1 / cqm=0 / deadzone=21,11 / fast_pskip=1 / chroma_qp_offset=-2 / threads=12 / lookahead_threads=2 / sliced_threads=0 / nr=0 / decimate=1 / interlaced=0 / bluray_compat=0 / constrained_intra=0 / bframes=3 / b_pyramid=2 / b_adapt=2 / b_bias=0 / direct=3 / weightb=1 / open_gop=0 / weightp=2 / keyint=240 / keyint_min=24 / scenecut=40 / intra_refresh=0 / rc_lookahead=50 / rc=2pass / mbtree=1 / bitrate=9962 / ratetol=1.0 / qcomp=0.60 / qpmin=0 / qpmax=69 / qpstep=4 / cplxblur=20.0 / qblur=0.5 / ip_ratio=1.40 / aq=1:1.00
Language : English
Default : Yes
Forced : No

Audio #1
ID : 2
Format : AC-3
Format/Info : Audio Coding 3
Format settings, Endianness : Big
Codec ID : A_AC3
Duration : 43 min 42 s
Bit rate mode : Constant
Bit rate : 192 kb/s
Channel(s) : 2 channels
Channel positions : Front: L R
Sampling rate : 48.0 kHz
Frame rate : 31.250 FPS (1536 spf)
Bit depth : 16 bits
Compression mode : Lossy
Stream size : 60.0 MiB (2%)
Title : MVO | STB/K1 | 2.0 | 192 kbps
Language : Ukrainian
Service kind : Complete Main
Default : Yes
Forced : No

Audio #2
ID : 3
Format :
Format/Info : Digital Theater Systems
Mode : 16
Format settings, Endianness : Big
Codec ID : A_DTS
Duration : 43 min 42 s
Bit rate mode : Constant
Bit rate : 768 kb/s
Channel(s) : 6 channels
Channel positions : Front: L C R, Side: L R, LFE
Sampling rate : 48.0 kHz
Frame rate : 93.750 FPS (512 spf)
Bit depth : 24 bits
Compression mode : Lossy
Stream size : 240 MiB (7%)
Title : Original
Language : English
Default : No
Forced : No

Text #1
ID : 4
Format : UTF-8
Codec ID : S_TEXT/UTF8
Codec ID/Info : UTF-8 Plain Text
Title : Original | SDH
Language : English
Default : No
Forced : No

Text #2
ID : 5
Format : UTF-8
Codec ID : S_TEXT/UTF8
Codec ID/Info : UTF-8 Plain Text
Title : Original
Language : English
Default : No
Forced : No

Menu
00:00:00.000 : en:00:00:00.000
00:03:06.603 : en:00:03:06.603
00:12:22.742 : en:00:12:22.742
00:21:14.815 : en:00:21:14.815
00:30:23.113 : en:00:30:23.113
00:43:05.666 : en:00:43:05.666
Скріншоти


























Джерело:
Подяки:
slavik_v_z за запис звуку з К1
krigg070 за синхронізацію під та опис.
-_-B_E_N_D_E_R-_- за постери.
Особиста оцінка: 10 - без зайвих вагань рекомендую всім!

Не забуваємо дякувати!


Золотий реліз (завантажене не впливає на рейтинг)
 Трекер:    Зареєстрований   

Завантажити / скачати серіал українською



відео для новачків



 Зареєстрований:   2017-07-26 17:12
 Розмір:   80.05 GB 
 Оцінка серіалу:   10/10 (Голосів: 39)
   
mukhaboyka 
Частий відвідувач


З нами з: 30.11.15
Востаннє: 03.12.20
Повідомлень: 27

2017-07-25 21:00  
Pegass написано:

Зробіть хтось постери українською, до усіх сезонів.
Такі, як тут.
Так візьміть з тих роздач.
[Captain] 
Попереджень: 1
Попереджень: 1 


З нами з: 18.02.12
Востаннє: 29.11.20
Повідомлень: 2338

2017-07-26 11:01  
Зробіть однією роздачею. Інакше сідерів просто не буде
bot 
робот


З нами з: 30.09.07
Востаннє: 26.05.05
Повідомлень: 26453

2017-07-26 17:12  
Тему перенесено з Анонси релізів до форуму Серіали в HD


Pegass

mukhaboyka 
Частий відвідувач


З нами з: 30.11.15
Востаннє: 03.12.20
Повідомлень: 27

2017-07-26 20:25  
Дякую за реліз)
krigg070 
Відео Гуртом - фільмокрай
Відео Гуртом - фільмокрай


З нами з: 29.10.14
Востаннє: 04.12.20
Повідомлень: 1819

2017-07-26 21:52  
[Captain] написано:
Зробіть однією роздачею. Інакше сідерів просто не буде

І багато людей згодиться виділити 600-700 GB на підтримку?

Anubys 
VIP


З нами з: 09.11.09
Востаннє: 04.12.20
Повідомлень: 365

2017-07-27 09:17  
Я таки схильний до ідеї окремих роздач.
Дуже дякую, забираю.

Anonymous 







2017-07-27 18:59  
Прошу вибачити, що мене небуло деякий час на роздачі.
Причиною є те, що небуло інтернету, бо один чувак копаючи рів на полі, ескаватором перекопав кабель. Так мені пояснив провайдер.

[Captain] 
Попереджень: 1
Попереджень: 1 


З нами з: 18.02.12
Востаннє: 29.11.20
Повідомлень: 2338

2017-07-27 19:08  
krigg070
маєте рацію. але погодьтеся, що на восьми роздачах мало хто залишатиметься.

Valera_Ventor 
Свій


З нами з: 15.12.12
Востаннє: 28.11.20
Повідомлень: 55

2017-09-19 22:14  
Тональність української доріжки надто занижена. В першому сезоні було нормально.
Ваш часовий пояс: GMT + 2 Години

Нова тема   Відповісти