У дев'ятому номері / Inside No. 9 (Сезон 1-2) (2014) 720p Ukr/Eng | sub Eng

Нові коментарі

Нова тема   Відповісти
Автор Повідомлення
sergiyko.5 
Забанено
Забанено


З нами з: 25.02.16
Востаннє: 29.10.20
Повідомлень: 3650

2017-07-25 12:55  
У дев'ятому номері / Inside No. 9 (Сезон 1-2) (2014) 720p Ukr/Eng | sub Eng

У дев'ятому номері / Inside No. 9 (Сезон 1-2) (2014) 720p Ukr/Eng | sub Eng

Жанр: Жахи, комедія
Країна: Велика Британія
Кінокомпанія: BBC
Режисер: Девід Керр, Гіл'єм Моралес, Стів Пембертон
Актори: Стів Пембертон, Ріс Шерсміт, Розі Кавал'єро

Сюжет:
Фільм складається з шести епізодів із самостійними сюжетами. У кожній серії події розгортатимуться в 6 різних житлових (і не дуже) приміщеннях під номером 9, де «звичайне і повсякденне має за сусіда дивне і таке, що лякає».




Тривалість: 1 серія: 00:29:34 (цілком серій: 12)
Якість:

Відео: кодек: розмір кадру: 1280 х 720 бітрейт: 5550 кб/с
Аудіо # 1: мова: українська переклад: багатоголосий закадровий кодек: 2.0 бітрейт: 192 кб/с
Аудіо # 2: мова: англійська переклад: оригінал кодек: 2.0 бітрейт: 384 кб/с
Субтитри : мова: англійська тип: програмні (м'які) формат: *.sub + *.idx
Джерело озвучення:
Перелік серій

Сезон 1:
01 Sardines/Сардини
02 A Quiet Night In/Тиха ніч
03 Tom and Gerri/Том і Джеррі
04 Last Gasp/Останній подих
05 The Understudy/Дублер
06 The Harrowing/Зішестя

Сезон 2:
01 La Couchette/Купе
02 The 12 Days of Christine/12 спогадів Крістін
03 The Trial of Elizabeth Gadge/Суд над Елізабет Гедж
04 Cold Comfort/Нульова підтримка
05 Nana's Party/День народження бабусі
06 Seance Time/Спіритичний сеанс
Про файл:
General
Unique ID : 246279752927075570625190261410784649188 (0xB947C14D4E7AAE569DC540785AAC9FE4)
Complete name : E:\FILMS\Inside No 9 720p \Inside No 9 S01 720p \Inside.No.9.S01E01.720p..Ukr.Eng.
Format :
Format version : Version 4 / Version 2
File size : 1.26 GiB
Duration : 29 min 27 s
Overall bit rate : 6 147 kb/s
Movie name : Inside No 9 Season 1 720p by sergiyko
Encoded date : UTC 2017-07-29 17:30:14
Writing application : v14.0.0 ('Flow') 64bit
Writing library : libebml v1.3.4 + v1.4.5

Video
ID : 1
Format : AVC
Format/Info : Advanced Video Codec
Format profile : [email protected]
Format settings, CABAC : Yes
Format settings, RefFrames : 5 frames
Codec ID : V_MPEG4/ISO/AVC
Duration : 29 min 27 s
Bit rate : 5 554 kb/s
Width : 1 280 pixels
Height : 720 pixels
Display aspect ratio : 16:9
Frame rate mode : Constant
Frame rate : 25.000 FPS
Color space : YUV
Chroma subsampling : 4:2:0
Bit depth : 8 bits
Scan type : Progressive
Bits/(Pixel*Frame) : 0.241
Stream size : 1.14 GiB (90%)
Title : Inside No 9 S01E01 720p
Writing library : core 148 r2744 b97ae06
Encoding settings : cabac=1 / ref=5 / deblock=1:-3:-3 / analyse=0x3:0x113 / me=umh / subme=8 / psy=1 / psy_rd=1.00:0.00 / mixed_ref=1 / me_range=16 / chroma_me=1 / trellis=1 / 8x8dct=1 / cqm=0 / deadzone=21,11 / fast_pskip=1 / chroma_qp_offset=-2 / threads=22 / lookahead_threads=3 / sliced_threads=0 / nr=0 / decimate=1 / interlaced=0 / bluray_compat=0 / constrained_intra=0 / bframes=3 / b_pyramid=2 / b_adapt=2 / b_bias=0 / direct=3 / weightb=1 / open_gop=0 / weightp=2 / keyint=250 / keyint_min=25 / scenecut=40 / intra_refresh=0 / rc_lookahead=50 / rc=2pass / mbtree=1 / bitrate=5554 / ratetol=1.0 / qcomp=0.60 / qpmin=0 / qpmax=69 / qpstep=4 / cplxblur=20.0 / qblur=0.5 / ip_ratio=1.40 / aq=3:0.80
Language : English
Default : Yes
Forced : No

Audio #1
ID : 2
Format : AC-3
Format/Info : Audio Coding 3
Format settings, Endianness : Big
Codec ID : A_AC3
Duration : 29 min 27 s
Bit rate mode : Constant
Bit rate : 192 kb/s
Channel(s) : 2 channels
Channel positions : Front: L R
Sampling rate : 48.0 kHz
Frame rate : 31.250 FPS (1536 SPF)
Bit depth : 16 bits
Compression mode : Lossy
Stream size : 40.4 MiB (3%)
Title : MOV | НЛО ТБ
Language : Ukrainian
Service kind : Complete Main
Default : Yes
Forced : Yes

Audio #2
ID : 3
Format : AC-3
Format/Info : Audio Coding 3
Format settings, Endianness : Big
Codec ID : A_AC3
Duration : 29 min 27 s
Bit rate mode : Constant
Bit rate : 384 kb/s
Channel(s) : 2 channels
Channel positions : Front: L R
Sampling rate : 48.0 kHz
Frame rate : 31.250 FPS (1536 SPF)
Bit depth : 16 bits
Compression mode : Lossy
Stream size : 80.9 MiB (6%)
Title : Original
Language : English
Service kind : Complete Main
Default : No
Forced : No

Text
ID : 4
Format : VobSub
Codec ID : S_VOBSUB
Codec ID/Info : Picture based subtitle format used on DVDs
Duration : 29 min 1 s
Bit rate : 15.3 kb/s
Count of elements : 552
Stream size : 3.18 MiB (0%)
Language : English
Default : No
Forced : No

Menu
00:00:00.000 : en:00:00:00.000
00:06:42.480 : en:00:06:42.480
00:14:53.680 : en:00:14:53.680
00:20:18.880 : en:00:20:18.880
Скріншоти:


Реліз: sergiyko


Бронзовий реліз (на рейтинг впливає 75% завантаженого)
 Трекер:    Зареєстрований   

Завантажити / скачати серіал українською



відео для новачків



 Зареєстрований:   2017-07-31 08:12
 Розмір:   15.04 GB 
 Оцінка серіалу:   9.5/10 (Голосів: 13)
   
leicheman 
Відео Гуртом - фільмокрай
Відео Гуртом - фільмокрай


З нами з: 03.07.14
Востаннє: 26.11.20
Повідомлень: 5688

2017-07-25 14:17  
Сподіваюсь , що покажуть усі 3 сезони.
Neytreenor 
Відео Гуртом - запис з ТБ
Відео Гуртом - запис з ТБ


З нами з: 03.04.11
Востаннє: 26.11.20
Повідомлень: 2904

2017-07-25 15:04  
leicheman написано:
Сподіваюсь , що покажуть усі 3 сезони.

У перші два "кола" показали лише два сезони.

leicheman 
Відео Гуртом - фільмокрай
Відео Гуртом - фільмокрай


З нами з: 03.07.14
Востаннє: 26.11.20
Повідомлень: 5688

2017-07-25 15:39  
Neytreenor написано:
два сезони

Дякую за інфу. Це вже щось , бо часто бувають замовлять один сезон і крутять його роками.

Neytreenor 
Відео Гуртом - запис з ТБ
Відео Гуртом - запис з ТБ


З нами з: 03.04.11
Востаннє: 26.11.20
Повідомлень: 2904

2017-07-25 16:06  
leicheman написано:
Це вже щось , бо часто бувають замовлять один сезон і крутять його роками.

Два сезони - це 12 серій (менше одного "стандартного" сезону) по півгодини, канал їх повністю показує за півтора тижня. Замало буде, щоб крутити роками Happy.

krigg070 
Відео Гуртом - фільмокрай
Відео Гуртом - фільмокрай


З нами з: 29.10.14
Востаннє: 26.11.20
Повідомлень: 1817

2017-07-25 16:21  
sergiyko.5 написано:

Є блюрей.

sergiyko.5 
Забанено
Забанено


З нами з: 25.02.16
Востаннє: 29.10.20
Повідомлень: 3650

2017-07-25 16:39  
krigg070
Добре.
А тут в TV версії частота 25 кадрів в секунду і аудіо не розтягується, не змінюється тон.

krigg070 
Відео Гуртом - фільмокрай
Відео Гуртом - фільмокрай


З нами з: 29.10.14
Востаннє: 26.11.20
Повідомлень: 1817

2017-07-25 16:42  
sergiyko.5
В блюреї кадраж також 25

sergiyko.5 
Забанено
Забанено


З нами з: 25.02.16
Востаннє: 29.10.20
Повідомлень: 3650

2017-07-25 16:57  
Відразу не знайшов, можливо зроблю 1080p .
leicheman 
Відео Гуртом - фільмокрай
Відео Гуртом - фільмокрай


З нами з: 03.07.14
Востаннє: 26.11.20
Повідомлень: 5688

2017-07-25 21:05  
Neytreenor
цe ж британці, я вжe давно звик, що вони малі сeзони роблять.

sergiyko.5 
Забанено
Забанено


З нами з: 25.02.16
Востаннє: 29.10.20
Повідомлень: 3650

2017-07-27 12:51  
У дев'ятому номері / Inside No. 9 (Сезон 1) (2014) 1080p Ukr/Eng | sub Eng

https://toloka.to/t83158

sergiyko.5 
Забанено
Забанено


З нами з: 25.02.16
Востаннє: 29.10.20
Повідомлень: 3650

2017-07-29 20:43  
Торент оновлено. Якість відео змінено на . Додав серії до повного першого сезону.

Додано через 50 хвилин 48 секунд:

Додав 2 серії другого сезону.

sergiyko.5 
Забанено
Забанено


З нами з: 25.02.16
Востаннє: 29.10.20
Повідомлень: 3650

2017-07-31 08:13  
Додав серії до повного другого сезону.
lastbreath 
Свій


З нами з: 02.12.15
Востаннє: 09.11.20
Повідомлень: 55

2017-10-16 10:15  
Крутезний серіал. Спасибі релізеру та всім, хто причетний до перекладу
goo3 
Частий відвідувач


З нами з: 26.11.10
Востаннє: 30.10.20
Повідомлень: 47

2018-07-04 12:05  
Прекасний переклад і серіал :)
Ваш часовий пояс: GMT + 2 Години

Нова тема   Відповісти