Той, що біжить лабіринтом. Випробування вогнем / Maze Runner: The Scorch Trials (2015) 1080p [Open Matte] Ukr/Eng | Sub Ukr/Eng

Нові коментарі

Нова тема   Відповісти
Автор Повідомлення
zoomymba2012 
Свій


З нами з: 08.01.15
Востаннє: 18.10.17
Повідомлень: 139

2017-07-25 12:31  
Той, що біжить лабіринтом. Випробування вогнем / Maze Runner: The Scorch Trials (2015) 1080p [Open Matte] Ukr/Eng | Sub Ukr/Eng



Жанр: екшн, фантастика, трилер
Країна: США



Кінокомпанія: Gotham Group, TSG Entertainment, Temple Hill Entertainment
Режисер: Вес Болл / Wes Ball
Актори: Ділан О'Брайен / Dylan O'Brien, Наталі Еммануель / Nathalie Emmanuel, Томас Сенґстер / Thomas Sangster, Кая Скоделаріо / Kaya Scodelario, Ейдан Ґіллен / Aidan Gillen, Кетерін МакНамара / Katherine McNamara, Джанкарло Еспозіто / Giancarlo Esposito, Патріція Кларксон / Patricia Clarkson, Беррі Пеппер / Barry Pepper, Кі Хонґ Лі / Ki Hong Lee та інші.

Сюжет:
У другому фільмі епічної саги "Лабіринт", Томасу та іншим ґлейдерам доведеться зіткнутися з найбільшою проблемою - таємничою і потужною організацією, яка продовжує випробовувати молодих людей. Прорвавшись на волю, вони з жахом виявлять, що світ за межами Лабіринту був зруйнований апокаліпсисом. Подорож ґлейдерів приведе їх до Спаленої Землі - пустельного ландшафту, наповненому неймовірними перешкодами. Вони зустрінуться з іншими людьми, і об'єднаються, щоб протистояти владі і розкрити шокуючий план організації "ПОРОК"...


Тривалість: 02:11:42
Якість: 1080p [Open Matte]
Відео:
кодек:
розмір кадру: 1920x1080
бітрейт: 5120 кб/с

Увага: У релізі використовується русифікований відеоряд.


Аудіо # 1:
мова: українська
переклад: професійний дубльований
кодек: 5.1
бітрейт: 448 кб/с

Аудіо # 2:
мова: англійська
переклад: оригінал
кодек: 5.1
бітрейт: 1509 кб/с

Джерело озвучення:


Субтитри # 1:
мова: українська
тип: програмні (м'які)
формат: *.srt

Субтитри # 2:
мова: англійська
тип: програмні (м'які)
формат: *.srt
Info

General
Unique ID : 174757885663076501369789758259383710125 (0x837924FE0F1797E7B951F6AEB74331AD)
Complete name : D:\Maze Runner The Scorch Trials (2015) [Ukr, Eng] 1080p [Open Matte] - Hurtom.
Format :
Format version : Version 4 / Version 2
File size : 6.30 GiB
Duration : 2 h 11 min
Overall bit rate : 6 845 kb/s
Encoded date : UTC 2017-07-25 08:01:18
Writing application : mkvmerge v13.0.0 ('The Juggler') 64bit
Writing library : libebml v1.3.4 + libmatroska v1.4.5

Video

ID : 1
Format : AVC
Format/Info : Advanced Video Codec
Format profile : [email protected]
Format settings, CABAC : Yes
Format settings, ReFrames : 4 frames
Codec ID : V_MPEG4/ISO/AVC
Duration : 2 h 11 min
Bit rate : 5 120 kb/s
Width : 1 920 pixels
Height : 1 080 pixels
Display aspect ratio : 16:9
Frame rate mode : Constant
Frame rate : 23.976 (24000/1001) FPS
Color space : YUV
Chroma subsampling : 4:2:0
Bit depth : 8 bits
Scan type : Progressive
Bits/(Pixel*Frame) : 0.103
Stream size : 4.50 GiB (71%)
Writing library : core 142
Encoding settings : cabac=1 / ref=3 / deblock=1:0:0 / analyse=0x3:0x113 / me=hex / subme=7 / psy=1 / psy_rd=1.00:0.00 / mixed_ref=1 / me_range=16 / chroma_me=1 / trellis=1 / 8x8dct=1 / cqm=0 / deadzone=21,11 / fast_pskip=1 / chroma_qp_offset=-2 / threads=48 / lookahead_threads=8 / sliced_threads=0 / nr=0 / decimate=1 / interlaced=0 / bluray_compat=0 / constrained_intra=0 / bframes=6 / b_pyramid=2 / b_adapt=1 / b_bias=0 / direct=1 / weightb=1 / open_gop=0 / weightp=2 / keyint=200 / keyint_min=20 / scenecut=0 / intra_refresh=0 / rc_lookahead=40 / rc=2pass / mbtree=1 / bitrate=5120 / ratetol=1.0 / qcomp=0.60 / qpmin=0 / qpmax=69 / qpstep=4 / cplxblur=20.0 / qblur=0.5 / vbv_maxrate=7680 / vbv_bufsize=20480 / nal_hrd=none / filler=0 / ip_ratio=1.40 / aq=1:1.00
Language : English
Default : Yes
Forced : No

Audio #1
ID : 2
Format : AC-3
Format/Info : Audio Coding 3
Mode extension : CM (complete main)
Format settings, Endianness : Big
Codec ID : A_AC3
Duration : 2 h 11 min
Bit rate mode : Constant
Bit rate : 448 kb/s
Channel(s) : 6 channels
Channel positions : Front: L C R, Side: L R, LFE
Sampling rate : 48.0 kHz
Frame rate : 31.250 FPS (1536 spf)
Bit depth : 16 bits
Compression mode : Lossy
Stream size : 422 MiB (7%)
Title : Дубляж
Language : Ukrainian
Default : No
Forced : No

Audio #2
ID : 3
Format :
Format/Info : Digital Theater Systems
Format profile : ES Matrix / Core
Mode : 16
Format settings, Endianness : Big
Codec ID : A_DTS
Duration : 2 h 11 min
Bit rate mode : Constant
Bit rate : 1 509 kb/s
Channel(s) : 7 channels / 6 channels
Channel positions : Front: L C R, Side: L R, Back: C, LFE / Front: L C R, Side: L R, LFE
Sampling rate : 48.0 kHz
Frame rate : 93.750 FPS (512 spf)
Bit depth : 24 bits
Compression mode : Lossy
Stream size : 1.39 GiB (22%)
Language : English
Default : No
Forced : No

Text #1
ID : 4
Format : UTF-8
Codec ID : S_TEXT/UTF8
Codec ID/Info : UTF-8 Plain Text
Duration : 2 h 10 min
Bit rate : 60 b/s
Count of elements : 1494
Stream size : 57.4 KiB (0%)
Language : Ukrainian
Default : No
Forced : No

Text #2
ID : 5
Format : UTF-8
Codec ID : S_TEXT/UTF8
Codec ID/Info : UTF-8 Plain Text
Duration : 2 h 2 min
Bit rate : 40 b/s
Count of elements : 1485
Stream size : 36.5 KiB (0%)
Language : English
Default : No
Forced : No
Скріншоти



Порівняння Blu-ray vs



Джерело: &
Особиста оцінка: 6 - третій сорт - не брак


 Трекер:    Зареєстрований   

Завантажити / скачати фільм українською



відео для новачків



 Зареєстрований:   2017-07-25 12:31
 Розмір:   6.3 GB 
 Оцінка фільму:   7.7/10 (Голосів: 6)
   
igor911 
Відео Гуртом
Відео Гуртом


З нами з: 18.01.08
Востаннє: 18.10.17
Повідомлень: 7910

2017-07-25 21:42  
zoomymba2012 написано:
Субтитри:

тип: вбудовані (жорсткі)

тут програмні (м'які), тип srt, виправ.

і додай інформацію про русифікований відеоряд великими червоними жирними літерами

Ваш часовий пояс: GMT + 2 Години

Нова тема   Відповісти