Бетмен проти Супермена: На зорі справедливості [Розширена IMAX версія] / Batman v Superman: Dawn of Justice [Ultimate IMAX Edition] (2016) 1080p Ukr/Eng | Sub Ukr/Eng

Нові коментарі

Нова тема   Відповісти
Автор Повідомлення
zoomymba2012 
Свій


З нами з: 08.01.15
Востаннє: 21.08.17
Повідомлень: 77

2017-07-24 17:58  
Бетмен проти Супермена: На зорі справедливості [Розширена IMAX версія] / Batman v Superman: Dawn of Justice [Ultimate IMAX Edition] (2016) 1080p Ukr/Eng | Sub Ukr/Eng

Бетмен проти Супермена: На зорі справедливості [Розширена IMAX версія] / Batman v Superman: Dawn of Justice [Ultimate IMAX Edition] (2016) 1080p Ukr/Eng | Sub Ukr/Eng


Жанр: пригоди, дія, екшн
Країна: США



Кінокомпанія: Warner Bros., Atlas Entertainment, Cruel & Unusual Films
Режисер: Зак Снайдер
Актори: Генрі Кавілл, Бен Аффлек, Емі Адамс, Джейсон Момоа, Джессі Айзенберґ, Ґал Ґадот, Джеффрі Дін Морґан, Даян Лейн, Езра Міллер, Джеремі Айронс

Сюжет:
Після руйнівної боротьби проти генерала Зода, місто Метрополіс було зруйноване вщент. Супермен став найбільш суперечливою персоною в світі. Поки одна частина людства вважає його символом надії, все більше людей схиляється до думки про те, що ця надлюдина несе загрозу для Землі. Брюс Вейн стурбований небезпекою, яку Супермен представляє для суспільства. Він невпевнений у збереженні миру у світі, де така сила залишається безконтрольною. Вейн одягає маску і костюм Бетмена, щоб виправити несправедливість надлюдини. Поки протистояння двох героїв набирає сили, на горизонті з'являється нова загроза. Людина, яка має більше влади, ніж Супермен і Бетмен, готова знищити все, за що вони боролися.


Тривалість: 03:02:33
Якість: 1080p
Відео:
кодек:
розмір кадру: 1920x1080
бітрейт: 17.8 Mб/с

Аудіо # 1:
мова: англійська
переклад: оригінал
кодек: -HD 5.1
бітрейт: 1 509 кб/с

Аудіо # 2:
мова: українська
переклад: професійний дубльований з вставками оригіналу
кодек: AC-3 2.0
бітрейт: 192 кб/с

Джерело озвучення:


Велика подяка пану Demrandir

Субтитри:
мова: російські
тип: жорсткі (вбудовані)

Субтитри:
мова: українські (форсовані)
тип: програмні (м'які), формат: srt

Субтитри:
мова: українські (повні)
тип: програмні (м'які), формат: srt

Субтитри:
мова: англійські (повні)
тип: програмні (м'які), формат: srt
Info
General
Unique ID : 238488225469355227366013530195684982723 (0xB36B2956DA59D541AFB400DF6F637FC3)
Complete name : Batman v Superman (2016) [Ukr, Eng] 1080p [Ultimate IMAX Edition] Hurtom.
Format :
Format version : Version 4 / Version 2
File size : 22.7 GiB
Duration : 3 h 2 min
Overall bit rate : 17.8 Mb/s
Encoded date : UTC 2017-07-24 11:35:01
Writing application : mkvmerge v13.0.0 ('The Juggler') 64bit
Writing library : libebml v1.3.4 + libmatroska v1.4.5

Video
ID : 1
Format : AVC
Format/Info : Advanced Video Codec
Format profile : [email protected]
Format settings, CABAC : Yes
Format settings, ReFrames : 4 frames
Codec ID : V_MPEG4/ISO/AVC
Duration : 3 h 2 min
Bit rate : 16.1 Mb/s
Width : 1 920 pixels
Height : 1 080 pixels
Display aspect ratio : 16:9
Frame rate mode : Constant
Frame rate : 23.976 (24000/1001) FPS
Color space : YUV
Chroma subsampling : 4:2:0
Bit depth : 8 bits
Scan type : Progressive
Bits/(Pixel*Frame) : 0.323
Stream size : 20.5 GiB (90%)
Writing library : core 148 r2762 90a61ec
Encoding settings : cabac=1 / ref=4 / deblock=1:-3:-3 / analyse=0x3:0x113 / me=umh / subme=10 / psy=1 / psy_rd=1.05:0.00 / mixed_ref=1 / me_range=24 / chroma_me=1 / trellis=2 / 8x8dct=1 / cqm=0 / deadzone=21,11 / fast_pskip=0 / chroma_qp_offset=-2 / threads=3 / lookahead_threads=1 / sliced_threads=0 / nr=0 / decimate=0 / interlaced=0 / bluray_compat=0 / constrained_intra=0 / bframes=12 / b_pyramid=2 / b_adapt=2 / b_bias=0 / direct=3 / weightb=1 / open_gop=0 / weightp=2 / keyint=250 / keyint_min=23 / scenecut=40 / intra_refresh=0 / rc_lookahead=50 / rc=crf / mbtree=0 / crf=18.5 / qcomp=0.65 / qpmin=0 / qpmax=69 / qpstep=4 / vbv_maxrate=50000 / vbv_bufsize=62500 / crf_max=0.0 / nal_hrd=none / filler=0 / ip_ratio=1.40 / pb_ratio=1.30 / aq=3:0.80
Language : Russian
Default : Yes
Forced : No

Audio #1
ID : 2
Format :
Format/Info : Digital Theater Systems
Mode : 16
Format settings, Endianness : Big
Codec ID : A_DTS
Duration : 3 h 2 min
Bit rate mode : Constant
Bit rate : 1 509 kb/s
Channel(s) : 6 channels
Channel positions : Front: L C R, Side: L R, LFE
Sampling rate : 48.0 kHz
Frame rate : 93.750 FPS (512 spf)
Bit depth : 24 bits
Compression mode : Lossy
Stream size : 1.92 GiB (8%)
Title : Original
Language : English
Default : No
Forced : No

Audio #2
ID : 5
Format : AC-3
Format/Info : Audio Coding 3
Mode extension : CM (complete main)
Format settings, Endianness : Big
Codec ID : A_AC3
Duration : 3 h 2 min
Bit rate mode : Constant
Bit rate : 192 kb/s
Channel(s) : 2 channels
Channel positions : Front: L R
Sampling rate : 48.0 kHz
Frame rate : 31.250 FPS (1536 spf)
Bit depth : 16 bits
Compression mode : Lossy
Stream size : 251 MiB (1%)
Title : Українська
Language : Ukrainian
Default : Yes
Forced : No

Text #1
ID : 3
Format : UTF-8
Codec ID : S_TEXT/UTF8
Codec ID/Info : UTF-8 Plain Text
Duration : 3 h 2 min
Bit rate : 41 b/s
Count of elements : 1915
Stream size : 56.0 KiB (0%)
Title : eng
Language : English
Default : No
Forced : No

Text #2
ID : 4
Format : UTF-8
Codec ID : S_TEXT/UTF8
Codec ID/Info : UTF-8 Plain Text
Duration : 2 h 53 min
Bit rate : 66 b/s
Count of elements : 1615
Stream size : 84.1 KiB (0%)
Title : ukr full
Default : No
Forced : No

Text #3
ID : 6
Format : UTF-8
Codec ID : S_TEXT/UTF8
Codec ID/Info : UTF-8 Plain Text
Duration : 2 h 54 min
Bit rate : 17 b/s
Count of elements : 384
Stream size : 22.4 KiB (0%)
Title : ukr forc
Default : Yes
Forced : No
Скріншоти
Standart vs IMAX







Джерело: &
Особиста оцінка: 8 - мені сподобалося]


 Трекер:    Зареєстрований   

Завантажити / скачати фільм українською



відео для новачків



 Зареєстрований:   2017-07-24 17:59
 Розмір:   22.67 GB 
 Оцінка фільму:   9.3/10 (Голосів: 12)
   
Інші релізи
   Бетмен проти Супермена: На зорі справедливості [Розширена версія] / Batman v Superman: Dawn of Justice [Extended Ultimate Edition] (2016) AVC Ukr/Eng | Sub Ukr/Eng 11FrYkT  24 / 0   3.3 GB   2016-10-21 18:13 
   Бетмен проти Супермена: На зорі справедливості [Розширена версія] / Batman v Superman: Dawn of Justice [Extended Ultimate Edition] (2016) 1080p Ukr/Eng | Sub Ukr/Eng Demrandir  7 / 1   15.98 GB   2016-09-27 16:53 
   Бетмен проти Супермена: На зорі справедливості [Розширена версія] / Batman v Superman: Dawn of Justice [Extended Ultimate Edition] (2016) [2.0 ] Український дубляж + вставки оригіналу | Sub Ukr Demrandir  1 / 0   251 MB   2016-09-27 16:46 
   Бетмен проти Супермена: На зорі справедливості [Розширена версія] / Batman v Superman: Dawn of Justice [Extended Ultimate Edition] (2016) 1080p 3D [HalfOverUnder] Ukr/Eng | Sub Ukr/Eng GEORGKys  2 / 0   25.29 GB   2016-09-18 22:46 
   Бетмен проти Супермена: На зорі справедливості / Batman v Superman: Dawn of Justice (2016) 1080p Ukr/Eng | Sub Eng 11FrYkT  2 / 0   16.59 GB   2016-09-15 22:04 
   Бетмен проти Супермена: На зорі справедливості / Batman v Superman: Dawn of Justice (2016) 720p Ukr/Eng | Sub Eng 11FrYkT  7 / 0   9.87 GB   2016-09-15 22:00 
   Бетмен проти Супермена: На зорі справедливості / Batman v Superman: Dawn of Justice (2016) AVC AngryBirdsUA  5 / 0   2.18 GB   2016-09-15 22:00 
   Бетмен проти Супермена: На зорі справедливості / Batman v Superman: Dawn of Justice (2016) Covenant  12 / 0   2.18 GB   2016-09-15 10:04 
   Бетмен проти Супермена : На зорі справедливості [Розширена версія] / Batman v Superman: Dawn of Justice (2016) [Extended Ultimate Edition] 720p Ukr/Eng | Sub Ukr/Eng Bod_zik99  9 / 0   9.81 GB   2016-07-12 12:58 
   Бетмен проти Супермена: На зорі справедливості / Batman v Superman: Dawn of Justice (2016) 1080p 3D [HalfOverUnder] Ukr/Eng | sub Eng -VipeR-  3 / 0   10.03 GB   2016-07-09 09:53 
zoomymba2012 
Свій


З нами з: 08.01.15
Востаннє: 21.08.17
Повідомлень: 77

2017-07-24 17:58  
Цитата

Джерело - онлайн кінотеатр.
IMAX Edition версія фільму, має більше наповнення кадру, в порівнянні з блюрей тільки в IMAX сценах, весь інший фільм 2.35: 1 исходник Blu Ray розширеної версії.
У джерела двох WEB DL 1080p розширеної і театральної версії. Розширена має невідключаючі Російські субтитри, а театральна немає, IMAX сцени в розширеній довше, коротка версія використовувалася в якості латок, для приховування невідключаючих субтитрів.

NeetScrool 
Відео Гуртом - фільмокрай
Відео Гуртом - фільмокрай


З нами з: 10.01.13
Востаннє: 21.08.17
Повідомлень: 2613

2017-07-25 06:37  
zoomymba2012
Чому ви пишете слово "исподник" без лапок? Та й взагалі, це ж не латинка, а слово "исходник" є лише російськомовним перекладом слово "source".

zoomymba2012 
Свій


З нами з: 08.01.15
Востаннє: 21.08.17
Повідомлень: 77

2017-07-25 10:01  
NeetScrool
Дякую. Вже додумався як замінити

igor911 
Відео Гуртом
Відео Гуртом


З нами з: 18.01.08
Востаннє: 21.08.17
Повідомлень: 7311

2017-07-25 22:07  
zoomymba2012 написано:
Audio #2
Title : Українська
Language : Ukrainian

Правила оформлення відео-релізу написано:
Українська доріжка повинна бути першою не тільки в описі, але і у самому відео [файлі]


Додано через 14 хвилин 55 секунд:

zoomymba2012 написано:

Субтитри:
мова: російські
тип: вбудовані (жорсткі, невимикні)

повні? форсовані? чи тут мається на увазі російський відеоряд?

Додано через 3 хвилини 16 секунд:

купа неточностей в оформленні:
zoomymba2012 написано:
бітрейт: 16.1 кб/с

zoomymba2012 написано:
кодек: 2.0


zoomymba2012 написано:
Субтитри:
тип: вбудовані (м'які)

треба замінити на програмні (м'які), тип: srt

igor911 
Відео Гуртом
Відео Гуртом


З нами з: 18.01.08
Востаннє: 21.08.17
Повідомлень: 7311

2017-08-01 10:49  
все лишається по-старому, невиправлене.
Укр.звук має бути в контейнері першим, треба перемуксувати файл

zoomymba2012 написано:
бітрейт: 17.8 кб/с

невірно
zoomymba2012 написано:
Субтитри:
мова: російські
тип: програмні (м'які), тип: srt

їх немає в медіаінфо, вони жорсткі (вбудовані)?

igor911 
Відео Гуртом
Відео Гуртом


З нами з: 18.01.08
Востаннє: 21.08.17
Повідомлень: 7311

2017-08-03 16:52  
1)
zoomymba2012 написано:
Відео:
бітрейт: 17.8 Mб/с

медіаінфо написано:
Video
Bit rate : 16.1 Mb/s


2) Укр.звук має бути в контейнері першим, треба перемуксувати файл.

Додано через 4 хвилини 14 секунд:

zoomymba2012 написано:

Субтитри:
мова: українські (форсовані)
тип: вбудовані (м'які)


невірно, звичайні текстові субтитри в контейнері позначаються як "тип: програмні (м'які), формат: srt"
"вбудовані" означає, що субтитри є частиною відеоряду.

MrRyanCooper 
VIP


З нами з: 24.08.12
Востаннє: 20.08.17
Повідомлень: 346

2017-08-16 11:42  
А це перша роздача цього фільму в IMAX? Хіба в 2016-му не в IMAX викладали роздачі?
Graviller123 
Новенький


З нами з: 26.08.15
Востаннє: 16.08.17
Повідомлень: 15

2017-08-16 11:50  
MrRyanCooper написано:
А це перша роздача цього фільму в IMAX?

Так, особисто я пів року назад дивився це кіно і сердився, що нема в 16:9. Тепер подивлюся ще в такому. Але дочекаюся 720р-mini. Надіюсь буде і в такому форматі.

Ваш часовий пояс: GMT + 2 Години

Нова тема   Відповісти