Привид у броні / Ghost In The Shell (2017) 1080p 3D [Half OverUnder] Ukr/Eng | Sub Ukr/Eng

Нові коментарі

Нова тема   Відповісти
Автор Повідомлення
Babamin 
Частий відвідувач


З нами з: 29.12.15
Востаннє: 17.08.17
Повідомлень: 26

2017-07-24 16:12  
Привид у броні / Ghost In The Shell (2017) 1080p 3D [Half OverUnder] Ukr/Eng | Sub Ukr/Eng

Привид у броні / Ghost In The Shell (2017) 1080p 3D [Half OverUnder] Ukr/Eng | Sub Ukr/Eng


Жанр: бойовик, драма, фантастика
Країна: США, Індія, Китай, Японія, Гонконг, Нова Зеландія, Канада, Австралія



Кінокомпанія: Paramount Pictures, DreamWorks SKG
Режисер: Руперт Сандерс
Актори: Скарлет Йоганссон, Майкл Пітт, Такеші Кітано, Пілу Асбек, Жюльєтт Бінош, Чін Ган, Крістофер Обі, Ріла Фукусіма, Ютака Ізумігара, Ласарус Ратуере та інші

Сюжет:
У найближчому майбутньому Матоко Кусанагі на прізвисько Майор буде першою в своєму роді. Колись вона була врятована в небезпечній аварії і за допомогою кібер-технологій перетворена в ідеального солдата, щоб зупинити найнебезпечніших геніїв кримінального світу. Люди того часу починають замінювати кібернетичними аналогами все, що тільки можна. Навіть свій розум... Тоді тероризм досягає такого рівня, що хакери проникають в розум людей і контролюють його. Тільки Майор може зупинити це. Але одного разу вона розуміє, що їй весь час брехали – її життя не врятували, а вкрали. Майор хоче дізнатися всі деталі свого минулого, щоб покарати винних і запобігти подібному в майбутньому.

Тривалість: 01:46:56
Якість: 1080p 3D [Half OverUnder]
Контейнер:

Відео:
кодек:
розмір кадру: 1920 х 1080
бітрейт: 8896 кб/с
Відео для перегляду на 3D обладнанні!

Аудіо # 1:
мова: українська
переклад: професійний дубльований
кодек: 2.0
бітрейт: 192 кб/с

Аудіо # 2:
мова: англійська
переклад: оригінал
кодек: 5.1
бітрейт: 640 кб/с

Субтитри # 1-2:
мова: українська (форсовані, повні)
тип: програмні (м'які)
формат: *.srt

Субтитри # 3:
мова: українська (повні)
тип: пререндерні
формат: *.PGS

Субтитри # 4-5:
мова: англійська (повні, SDH)
тип: програмні (м'які)
формат: *.srt

Субтитри # 6-7:
мова: англійська (повні, SDH)
тип: пререндерні
формат: *.PGS
Log & Info:
[info]: frame I:1839 Avg QP:12.20 size:312697
[info]: frame P:32645 Avg QP:16.86 size: 93175
[info]: frame B:119363 Avg QP:18.80 size: 29483
[info]: consecutive B-frames: 12.7% 0.8% 1.2% 2.8% 2.7% 10.2% 6.3% 4.7% 5.3% 6.3% 5.8% 2.9% 6.6% 4.8% 6.9% 3.0% 17.1%
[info]: kb/s:8896.75

Complete name : Привид.у.броні.(2017)..1080p.3D.[HOU].[HURTOM].
Format :
Format version : Version 4 / Version 2
File size : 7.28 GiB
Duration : 1 h 46 min
Overall bit rate : 9 752 kb/s
Movie name : Привид у броні (2017) 1080p 3D [HOU] [HURTOM] toloka
Encoded date : UTC 2017-07-24 12:28:10
Writing application : mkvmerge v12.0.0 ('Trust / Lust') 64bit
Writing library : libebml v1.3.4 + libmatroska v1.4.5

Video
ID : 1
Format : AVC
Format/Info : Advanced Video Codec
Format profile : [email protected]
MultiView_Count : 2
MultiView_Layout : Top-Bottom (left eye first)
Format settings, CABAC : Yes
Format settings, ReFrames : 4 frames
Codec ID : V_MPEG4/ISO/AVC
Duration : 1 h 46 min
Bit rate : 8 896 kb/s
Width : 1 920 pixels
Height : 1 080 pixels
Display aspect ratio : 16:9
Frame rate mode : Constant
Frame rate : 23.976 (24000/1001) FPS
Color space : YUV
Chroma subsampling : 4:2:0
Bit depth : 8 bits
Scan type : Progressive
Bits/(Pixel*Frame) : 0.179
Stream size : 6.65 GiB (91%)
Title : Привид.у.броні.(2017)..1080p.3D.[HOU]. [HURTOM]
Writing library : core 148 r2744 b97ae06
Encoding settings : cabac=1 / ref=4 / deblock=1:-2:-2 / analyse=0x3:0x113 / me=umh / subme=11 / psy=1 / psy_rd=1.00:0.10 / mixed_ref=1 / me_range=24 / chroma_me=1 / trellis=2 / 8x8dct=1 / cqm=0 / deadzone=21,11 / fast_pskip=1 / chroma_qp_offset=-2 / threads=4 / lookahead_threads=1 / sliced_threads=0 / nr=0 / decimate=1 / interlaced=0 / bluray_compat=0 / constrained_intra=0 / bframes=16 / b_pyramid=2 / b_adapt=1 / b_bias=0 / direct=1 / weightb=1 / open_gop=1 / weightp=2 / keyint=240 / keyint_min=23 / scenecut=40 / intra_refresh=0 / rc_lookahead=60 / rc=crf / mbtree=1 / crf=15.5 / qcomp=0.60 / qpmin=0 / qpmax=69 / qpstep=4 / vbv_maxrate=40000 / vbv_bufsize=55000 / crf_max=0.0 / nal_hrd=none / filler=0 / frame-packing=4 / ip_ratio=1.40 / aq=1:0.90
Default : Yes
Forced : No

Audio #1
ID : 2
Format : AC-3
Format/Info : Audio Coding 3
Format settings, Endianness : Big
Codec ID : A_AC3
Duration : 1 h 46 min
Bit rate mode : Constant
Bit rate : 192 kb/s
Channel(s) : 2 channels
Channel positions : Front: L R
Sampling rate : 48.0 kHz
Frame rate : 31.250 FPS (1536 spf)
Bit depth : 16 bits
Compression mode : Lossy
Stream size : 147 MiB (2%)
Title : iTunes
Language : Ukrainian
Service kind : Complete Main
Default : Yes
Forced : No

Audio #2
ID : 3
Format : AC-3
Format/Info : Audio Coding 3
Format settings, Endianness : Big
Codec ID : A_AC3
Duration : 1 h 46 min
Bit rate mode : Constant
Bit rate : 640 kb/s
Channel(s) : 6 channels
Channel positions : Front: L C R, Side: L R, LFE
Sampling rate : 48.0 kHz
Frame rate : 31.250 FPS (1536 spf)
Bit depth : 16 bits
Compression mode : Lossy
Stream size : 490 MiB (7%)
Language : English
Service kind : Complete Main
Default : No
Forced : No

Text #1
ID : 4
Format : UTF-8
Codec ID : S_TEXT/UTF8
Codec ID/Info : UTF-8 Plain Text
Duration : 1 h 45 min
Bit rate : 3 b/s
Count of elements : 78
Stream size : 2.76 KiB (0%)
Title : forced
Language : Ukrainian
Default : Yes
Forced : Yes

Text #2
ID : 5
Format : UTF-8
Codec ID : S_TEXT/UTF8
Codec ID/Info : UTF-8 Plain Text
Duration : 1 h 45 min
Bit rate : 47 b/s
Count of elements : 971
Stream size : 36.4 KiB (0%)
Title : full [BD]
Language : Ukrainian
Default : No
Forced : No

Text #3
ID : 6
Format : PGS
Muxing mode : zlib
Codec ID : S_HDMV/PGS
Codec ID/Info : Picture based subtitle format used on BDs/HD-DVDs
Duration : 1 h 45 min
Bit rate : 7 053 b/s
Count of elements : 1942
Stream size : 5.31 MiB (0%)
Title : full [BD]
Language : Ukrainian
Default : No
Forced : No

Text #4
ID : 7
Format : UTF-8
Codec ID : S_TEXT/UTF8
Codec ID/Info : UTF-8 Plain Text
Duration : 1 h 34 min
Bit rate : 32 b/s
Count of elements : 884
Stream size : 22.7 KiB (0%)
Title : full [BD]
Language : English
Default : No
Forced : No

Text #5
ID : 8
Format : UTF-8
Codec ID : S_TEXT/UTF8
Codec ID/Info : UTF-8 Plain Text
Duration : 1 h 35 min
Bit rate : 39 b/s
Count of elements : 1119
Stream size : 27.9 KiB (0%)
Title : SDH [BD]
Language : English
Default : No
Forced : No

Text #6
ID : 9
Format : PGS
Muxing mode : zlib
Codec ID : S_HDMV/PGS
Codec ID/Info : Picture based subtitle format used on BDs/HD-DVDs
Duration : 1 h 34 min
Bit rate : 7 078 b/s
Count of elements : 1768
Stream size : 4.81 MiB (0%)
Title : full
Language : English
Default : No
Forced : No

Text #7
ID : 10
Format : PGS
Muxing mode : zlib
Codec ID : S_HDMV/PGS
Codec ID/Info : Picture based subtitle format used on BDs/HD-DVDs
Duration : 1 h 35 min
Bit rate : 9 280 b/s
Count of elements : 2238
Stream size : 6.32 MiB (0%)
Title : SDH
Language : English
Default : No
Forced : No

Menu
00:00:00.000 : en:Chapter 01
00:08:09.322 : en:Chapter 02
00:14:39.962 : en:Chapter 03
00:21:26.493 : en:Chapter 04
00:28:02.681 : en:Chapter 05
00:34:13.217 : en:Chapter 06
00:39:27.615 : en:Chapter 07
00:43:57.801 : en:Chapter 08
00:51:49.815 : en:Chapter 09
00:55:19.065 : en:Chapter 10
01:01:06.871 : en:Chapter 11
01:07:49.732 : en:Chapter 12
01:14:36.972 : en:Chapter 13
01:20:31.743 : en:Chapter 14
01:27:46.177 : en:Chapter 15
01:33:41.407 : en:Chapter 16
01:38:00.082 : en:Chapter 17
Скріншоти:








Джерело:


 Трекер:    Зареєстрований   

Завантажити / скачати фільм українською



відео для новачків



 Зареєстрований:   2017-07-24 16:12
 Розмір:   7.28 GB 
 Оцінка фільму:   8/10 (Голосів: 7)
   
Інші релізи
Ваш часовий пояс: GMT + 2 Години

Нова тема   Відповісти