Код (Сезони 1-2) / The Code (Seasons 1-2) (2014-2016) 720p Ukr/Eng

Нові коментарі

Нова тема   Відповісти
Автор Повідомлення
Anonymous 







2017-07-23 15:34  

Сезони 1-2: | 720p

Код (Сезони 1-2) / The Code (Seasons 1-2) (2014-2016) 720p Ukr/Eng

Код (Сезони 1-2) / The Code (Seasons 1-2) (2014-2016) 720p Ukr/Eng


Жанр: драма, трилер
Країна: Австралія



Кінокомпанія: Playmaker Media
Режисер: Шеллі Бірз (Shelley Birse)
Актори: Ден Спілман (Dan Spielman), Ешлі Зукерман (Ashley Zukerman), Адель Перовіч (Adele Perovic), Адам Ґарсія (Adam Garcia) та інші

Сюжет:
До рук двох братів випадково потрапляє секретна інформація. Австралійський уряд готовий піти на все, аби зберегти її у таємниці...

Тривалість: 1 серія: ~55 хв. (цілком серій: 12)
Перелік серій
Episode #1.1
Episode #1.2
Episode #1.3
Episode #1.4
Episode #1.5
Episode #1.6

Episode #2.1
Episode #2.2
Episode #2.3
Episode #2.4
Episode #2.5
Episode #2.6
Якість:
Відео:
кодек:
розмір кадру: 1280 х 720 (Сезон 1), 960 х 718 (16:9) (Сезон 2)
бітрейт: 6000 кб/с (Сезон 1), ~4000 кб/с (Сезон 2)

Аудіо # 1 (окрім серії 1х04):
мова: українська
переклад: двоголосий закадровий
кодек: 2.0
бітрейт: 192 кб/с

Аудіо # 2:
мова: англійська
переклад: оригінал
кодек: 2.0
бітрейт: 192 кб/с

Джерело озвучення:


Субтитри (форсовані, до серії 1х04):
мова: українська
тип: програмні (м'які)
формат: *.srt
Info
Сезон 1
General
Unique ID : 175110210926969135923341475677864813304 (0x83BCFFF815AC35BF80F21790E37D62F8)
Complete name : E:\Support\The Code [, 720p, Ukr, Eng]\Season 1\The.Code.s01e01..720p.Ukr.Eng.
Format :
Format version : Version 4 / Version 2
File size : 2.41 GiB
Duration : 55 min 53 s
Overall bit rate mode : Constant
Overall bit rate : 6 171 kb/s
Encoded date : UTC 2017-07-22 15:43:11
Writing application : v13.0.0 ('The Juggler') 64bit
Writing library : libebml v1.3.4 + v1.4.5

Video
ID : 1
Format : AVC
Format/Info : Advanced Video Codec
Format profile : [email protected]
Format settings, CABAC : Yes
Format settings, ReFrames : 4 frames
Codec ID : V_MPEG4/ISO/AVC
Duration : 55 min 53 s
Bit rate mode : Constant
Bit rate : 6 000 kb/s
Width : 1 280 pixels
Height : 720 pixels
Display aspect ratio : 16:9
Frame rate mode : Constant
Frame rate : 25.000 FPS
Standard : PAL
Color space : YUV
Chroma subsampling : 4:2:0
Bit depth : 8 bits
Scan type : Progressive
Bits/(Pixel*Frame) : 0.260
Stream size : 2.26 GiB (94%)
Language : English
Default : Yes
Forced : No
Color range : Limited
Color primaries : BT.709
Transfer characteristics : BT.709
Matrix coefficients : BT.709

Audio #1
ID : 2
Format : AC-3
Format/Info : Audio Coding 3
Format settings, Endianness : Big
Codec ID : A_AC3
Duration : 55 min 53 s
Bit rate mode : Constant
Bit rate : 192 kb/s
Channel(s) : 2 channels
Channel positions : Front: L R
Sampling rate : 48.0 kHz
Frame rate : 31.250 FPS (1536 spf)
Bit depth : 16 bits
Compression mode : Lossy
Stream size : 76.8 MiB (3%)
Title : ATR
Language : Ukrainian
Service kind : Complete Main
Default : Yes
Forced : No

Audio #2
ID : 3
Format : AC-3
Format/Info : Audio Coding 3
Format settings, Endianness : Big
Codec ID : A_AC3
Duration : 55 min 53 s
Bit rate mode : Constant
Bit rate : 192 kb/s
Channel(s) : 2 channels
Channel positions : Front: L R
Sampling rate : 48.0 kHz
Frame rate : 31.250 FPS (1536 spf)
Bit depth : 16 bits
Compression mode : Lossy
Stream size : 76.8 MiB (3%)
Language : English
Service kind : Complete Main
Default : No
Forced : No
Сезон 2
General
Unique ID : 173256850093909583617601575880991389340 (0x82580E399CF83845A0FC082D7753369C)
Complete name : E:\Support\The Code [, 720p, Ukr, Eng]\Season 2\The.Code.s02e01..720p.Ukr.Eng.
Format :
Format version : Version 4 / Version 2
File size : 1.85 GiB
Duration : 57 min 14 s
Overall bit rate : 4 616 kb/s
Encoded date : UTC 2017-07-22 16:14:28
Writing application : v13.0.0 ('The Juggler') 64bit
Writing library : libebml v1.3.4 + v1.4.5

Video
ID : 1
Format : AVC
Format/Info : Advanced Video Codec
Format profile : [email protected]
Format settings, CABAC : No
Format settings, ReFrames : 2 frames
Codec ID : V_MPEG4/ISO/AVC
Duration : 57 min 7 s
Bit rate : 4 046 kb/s
Width : 960 pixels
Height : 718 pixels
Display aspect ratio : 16:9
Frame rate mode : Constant
Frame rate : 25.000 FPS
Color space : YUV
Chroma subsampling : 4:2:0
Bit depth : 8 bits
Scan type : Progressive
Bits/(Pixel*Frame) : 0.235
Stream size : 1.61 GiB (87%)
Language : English
Default : Yes
Forced : No
Color range : Limited
Color primaries : BT.709
Transfer characteristics : BT.709
Matrix coefficients : BT.709

Audio #1
ID : 2
Format : AC-3
Format/Info : Audio Coding 3
Format settings, Endianness : Big
Codec ID : A_AC3
Duration : 57 min 14 s
Bit rate mode : Constant
Bit rate : 192 kb/s
Channel(s) : 2 channels
Channel positions : Front: L R
Sampling rate : 48.0 kHz
Frame rate : 31.250 FPS (1536 spf)
Bit depth : 16 bits
Compression mode : Lossy
Stream size : 78.6 MiB (4%)
Title : ATR
Language : Ukrainian
Service kind : Complete Main
Default : Yes
Forced : No

Audio #2
ID : 3
Format : AC-3
Format/Info : Audio Coding 3
Format settings, Endianness : Big
Codec ID : A_AC3
Duration : 57 min 8 s
Bit rate mode : Constant
Bit rate : 384 kb/s
Channel(s) : 2 channels
Channel positions : Front: L R
Sampling rate : 48.0 kHz
Frame rate : 31.250 FPS (1536 spf)
Bit depth : 16 bits
Compression mode : Lossy
Stream size : 157 MiB (8%)
Language : English
Service kind : Complete Main
Default : No
Forced : No
Скріншоти
Сезон 1:

Сезон 2:

За українську доріжку та субтитри дякую п. krigg070

Джерело: &
Особиста оцінка: 0 - не дивився


Бронзовий реліз (на рейтинг впливає 75% завантаженого)
 Трекер:    Зареєстрований   

Завантажити / скачати серіал українською



відео для новачків



 Зареєстрований:   2017-07-23 15:34
 Розмір:   24.64 GB 
 Оцінка серіалу:   5.7/10 (Голосів: 21)
   
ImfromUkraine 
VIP


З нами з: 18.02.12
Востаннє: 22.09.18
Повідомлень: 329

2017-07-28 22:23  
Цитата:
Оцінка серіалу: 2.5/10 (Голосів: 12)

усе настільки погано? хто дивився, відпишіть, будьте ласкаві)

Anonymous 







2017-07-28 22:37  
ImfromUkraine написано:
усе настільки погано?

То якийсь довбень з десяти облікових записів усім релізам одиниці ліпить, ніяк ані його не забанять, ані рейтинг не приберуть.

ImfromUkraine 
VIP


З нами з: 18.02.12
Востаннє: 22.09.18
Повідомлень: 329

2017-07-30 21:06  
Anonymous
певно, людині, ображеній на весь світ, нема чим зайнятись)
п.с. шкода, що другий сезон у такій якості, 720 ще більш-менш але то вже таке шось)

olexlviv 
Свій


З нами з: 15.11.08
Востаннє: 23.09.18
Повідомлень: 51

2017-09-12 23:22  
Anonymous написано:

ImfromUkraine написано:
усе настільки погано?

То якийсь довбень з десяти облікових записів усім релізам одиниці ліпить, ніяк ані його не забанять, ані рейтинг не приберуть.


В кожного українського ресурсу, та ще й такого, як Гуртом, можна не сумніватися що є, і то ну дуже очевидний ворог, який бажає, в ідеалі, ліквідувати цей ресурс. А як не виходить, то хоч напаскудити в ньому. Захищати ресурс від таких людей мають ті, хто займається безпекою.

trasylo 
Новенький


З нами з: 24.12.16
Востаннє: 23.09.18
Повідомлень: 18

2018-09-14 14:04  
Чудовий серіал. Рекомендую усім. 10 балів однозначно
Ваш часовий пояс: GMT + 2 Години

Нова тема   Відповісти