Обдарована / Gifted (2017) Remux 1080p Ukr/Eng | Sub Ukr/Eng/Spa/Fre

Нові коментарі

Нова тема   Відповісти
Автор Повідомлення
IronBee 
Поважний учасник


З нами з: 08.02.10
Востаннє: 21.10.18
Повідомлень: 208

2017-07-23 13:02  
Обдарована / Gifted (2017) Remux 1080p Ukr/Eng | Sub Ukr/Eng/Spa/Fre

Обдарована / Gifted (2017) Remux 1080p Ukr/Eng | Sub Ukr/Eng/Spa/Fre
Український постер:

Обдарована / Gifted (2017) Remux 1080p Ukr/Eng | Sub Ukr/Eng/Spa/Fre


Жанр: драма
Країна: США



Режисер: Марк Вебб
Актори: Кріс Еванс, Маккенна Грейс, Єнні Слейт, Октавія Спенсер, Ліндсей Данкан, Джулі Енн Емері, Гленн Пламмер

Сюжет:
Френк Адлер — неодружений чоловік, який сам виховує свою талановиту племінницю Мері. Але раптом в їх життя повертається її бабуся, мати Френка, і подає в суд, щоб домогтися одноосібної опіки над дівчинкою.


Тривалість: 01:41:10
Якість: Remux
Відео:
кодек:
розмір кадру: 1920 х 1080
бітрейт: 30 Мб/с

Аудіо # 1:
мова: українська (Bluray)
переклад: професійний дубльований
кодек: 5.1
бітрейт: 448 kb/s

Аудіо # 2:
мова: англійська
переклад: оригінал
кодек: 5.1
бітрейт: 1509 kb/s

Аудіо # 3:
мова: англійська (коментарі режисера)
переклад: оригінал
кодек: 5.1
бітрейт: 448 kb/s

Субтитри # 1:
мова: українська (Bluray)
тип: програмні (м'які)
формат: *.srt

Субтитри # 2:
мова: англійська
тип: програмні (м'які)
формат: *.srt

Субтитри # 3:
мова: англійська
тип: пререндерні
формат: PGS

Субтитри # 4:
мова: іспанська
тип: пререндерні
формат: PGS

Субтитри # 5:
мова: французька (повні)
тип: пререндерні
формат: PGS

Субтитри # 6:
мова: французька (форсовані)
тип: пререндерні
формат: PGS
Info
General
Unique ID : 244046264357851231462545214349173821202 (0xB79999D0463581BCA9B3E2CF8CCB8F12)
Complete name : D:\Films\Обдарована Gifted (2017) Remux 1080p UkrEng Sub UkrEng[Hurtom].
Format :
Format version : Version 4 / Version 2
File size : 24.5 GiB
Duration : 1 h 41 min
Overall bit rate mode : Variable
Overall bit rate : 34.7 Mb/s
Movie name : Gifted 2017 - MRG
Encoded date : UTC 2017-10-28 14:09:50
Writing application : v17.0.0 ('Be Ur Friend') 64-bit
Writing library : libebml v1.3.5 + v1.4.8

Video
ID : 1
Format : AVC
Format/Info : Advanced Video Codec
Format profile : [email protected]
Format settings, CABAC : Yes
Format settings, ReFrames : 4 frames
Codec ID : V_MPEG4/ISO/AVC
Duration : 1 h 41 min
Bit rate mode : Variable
Bit rate : 30.0 Mb/s
Maximum bit rate : 31.4 Mb/s
Width : 1 920 pixels
Height : 1 080 pixels
Display aspect ratio : 16:9
Frame rate mode : Constant
Frame rate : 23.976 (24000/1001) FPS
Color space : YUV
Chroma subsampling : 4:2:0
Bit depth : 8 bits
Scan type : Progressive
Bits/(Pixel*Frame) : 0.604
Stream size : 21.2 GiB (87%)
Default : No
Forced : No

Audio #1
ID : 2
Format : AC-3
Format/Info : Audio Coding 3
Mode extension : CM (complete main)
Format settings, Endianness : Big
Codec ID : A_AC3
Duration : 1 h 41 min
Bit rate mode : Constant
Bit rate : 448 kb/s
Channel(s) : 6 channels
Channel positions : Front: L C R, Side: L R, LFE
Sampling rate : 48.0 kHz
Frame rate : 31.250 FPS (1536 spf)
Bit depth : 16 bits
Compression mode : Lossy
Stream size : 324 MiB (1%)
Language : Ukrainian
Default : Yes
Forced : No

Audio #2
ID : 3
Format :
Format/Info : Digital Theater Systems
Format profile : MA / Core
Mode : 16
Format settings, Endianness : Big
Codec ID : A_DTS
Duration : 1 h 41 min
Bit rate mode : Variable / Constant
Bit rate : 3 729 kb/s / 1 509 kb/s
Channel(s) : 6 channels
Channel positions : Front: L C R, Side: L R, LFE
Sampling rate : 48.0 kHz
Frame rate : 93.750 FPS (512 spf)
Bit depth : 24 bits
Compression mode : Lossless / Lossy
Stream size : 2.64 GiB (11%)
Language : English
Default : No
Forced : No

Audio #3
ID : 4
Format : AC-3
Format/Info : Audio Coding 3
Mode extension : CM (complete main)
Format settings, Endianness : Big
Codec ID : A_AC3
Duration : 1 h 41 min
Bit rate mode : Constant
Bit rate : 448 kb/s
Channel(s) : 6 channels
Channel positions : Front: L C R, Side: L R, LFE
Sampling rate : 48.0 kHz
Frame rate : 31.250 FPS (1536 spf)
Bit depth : 16 bits
Compression mode : Lossy
Stream size : 324 MiB (1%)
Language : English
Default : No
Forced : No

Text #1
ID : 5
Format : UTF-8
Codec ID : S_TEXT/UTF8
Codec ID/Info : UTF-8 Plain Text
Duration : 1 h 40 min
Bit rate : 109 b/s
Count of elements : 1537
Stream size : 80.1 KiB (0%)
Language : Ukrainian
Default : Yes
Forced : No

Text #2
ID : 6
Format : UTF-8
Codec ID : S_TEXT/UTF8
Codec ID/Info : UTF-8 Plain Text
Duration : 1 h 40 min
Bit rate : 66 b/s
Count of elements : 1751
Stream size : 48.5 KiB (0%)
Language : English
Default : No
Forced : No

Text #3
ID : 7
Format : PGS
Muxing mode : zlib
Codec ID : S_HDMV/PGS
Codec ID/Info : Picture based subtitle format used on BDs/HD-DVDs
Duration : 1 h 40 min
Bit rate : 45.2 kb/s
Count of elements : 3672
Stream size : 32.3 MiB (0%)
Title : English-PGS
Language : English
Default : No
Forced : No

Text #4
ID : 8
Format : PGS
Muxing mode : zlib
Codec ID : S_HDMV/PGS
Codec ID/Info : Picture based subtitle format used on BDs/HD-DVDs
Duration : 1 h 40 min
Bit rate : 38.6 kb/s
Count of elements : 3084
Stream size : 27.7 MiB (0%)
Title : Spanish-PGS
Language : Spanish
Default : No
Forced : No

Text #5
ID : 9
Format : PGS
Muxing mode : zlib
Codec ID : S_HDMV/PGS
Codec ID/Info : Picture based subtitle format used on BDs/HD-DVDs
Duration : 1 h 40 min
Bit rate : 39.1 kb/s
Count of elements : 3078
Stream size : 28.0 MiB (0%)
Title : French-PGS
Language : French
Default : No
Forced : No

Text #6
ID : 10
Format : PGS
Muxing mode : zlib
Codec ID : S_HDMV/PGS
Codec ID/Info : Picture based subtitle format used on BDs/HD-DVDs
Duration : 1 h 40 min
Bit rate : 112 b/s
Count of elements : 10
Stream size : 82.2 KiB (0%)
Title : French-FORCED-PGS
Language : French
Default : No
Forced : No

Menu
00:00:00.000 : en:Chapter 01
00:04:36.317 : en:Chapter 02
00:07:49.302 : en:Chapter 03
00:12:55.524 : en:Chapter 04
00:18:50.003 : en:Chapter 05
00:22:23.008 : en:Chapter 06
00:29:13.084 : en:Chapter 07
00:33:18.830 : en:Chapter 08
00:37:56.399 : en:Chapter 09
00:42:57.825 : en:Chapter 10
00:45:34.356 : en:Chapter 11
00:48:06.675 : en:Chapter 12
00:50:58.805 : en:Chapter 13
00:54:31.685 : en:Chapter 14
00:59:05.959 : en:Chapter 15
01:03:52.787 : en:Chapter 16
01:08:44.787 : en:Chapter 17
01:14:52.279 : en:Chapter 18
01:19:29.347 : en:Chapter 19
01:23:44.769 : en:Chapter 20
01:26:54.751 : en:Chapter 21
01:29:38.831 : en:Chapter 22
01:32:49.272 : en:Chapter 23
01:35:36.647 : en:Chapter 24
Скріншоти





Джерело: &
Особиста оцінка: 10 - без зайвих вагань рекомендую всім!


Золотий реліз (завантажене не впливає на рейтинг)
 Трекер:    Зареєстрований   

Завантажити / скачати фільм українською



відео для новачків



 Зареєстрований:   2017-10-28 18:23
 Розмір:   24.52 GB 
 Оцінка фільму:   9.3/10 (Голосів: 12)
   
Інші релізи
   Обдарована / Gifted (2017) Ukr/Eng boroznaya  8 / 0   2.18 GB   2018-02-04 16:06 
   Обдарована / Gifted (2017) 720p Ukr/Eng | Sub Ukr/Eng 11FrYkT  8 / 0   4.16 GB   2017-10-27 18:04 
   Обдарована / Gifted (2017) AVC Ukr/Eng | Sub Ukr/Eng 11FrYkT  11 / 0   1.81 GB   2017-10-27 18:03 
   Обдарована / Gifted (2017) 1080p Ukr/Eng | Sub Ukr/Eng sergiyko.5  5 / 0   10.83 GB   2017-10-27 09:49 
   Обдарована / Gifted (2017) Ukr/Eng | Sub Ukr/Eng leicheman  18 / 0   1.74 GB   2017-10-26 22:42 
VitNi 
Свій


З нами з: 05.05.12
Востаннє: 21.10.18
Повідомлень: 98

2017-07-23 15:25  
Така фігня...
Мале, сидячі на горщику, розв'язує математичні задачі тисячоліття а дурна та зла бабега хоче її заставити вчитись на професора.

Electroz 
Відео Гуртом - підтримка та поширення
Відео Гуртом - підтримка та поширення


З нами з: 18.09.14
Востаннє: 22.10.18
Повідомлень: 3034

2017-07-23 15:36  
VitNi
Навіщо писати спойлери?

VitNi 
Свій


З нами з: 05.05.12
Востаннє: 21.10.18
Повідомлень: 98

2017-07-23 15:46  
Electroz написано:
Навіщо писати спойлери?


Аби хто для мене написав про цей фільм - я би сказав "дякую", бо не витратив би даремно час на фігню, яку навіть не зміг додивитись до кінця...

IronBee 
Поважний учасник


З нами з: 08.02.10
Востаннє: 21.10.18
Повідомлень: 208

2017-07-23 18:35  
Кожному своє)
sergiyko.5 
VIP


З нами з: 25.02.16
Востаннє: 22.10.18
Повідомлень: 1791

2017-07-24 16:37  
VitNi
А тут https://toloka.to/t82896 всім сподобалось. Ви один такий особливий.

Hovik 
Частий відвідувач


З нами з: 28.12.15
Востаннє: 20.10.18
Повідомлень: 41

2017-07-25 01:56  
Актори непогані, але фільм - набір штампів.
IronBee 
Поважний учасник


З нами з: 08.02.10
Востаннє: 21.10.18
Повідомлень: 208

2017-07-25 20:40  
Гарний фільм, викликає позитивні емоції)
sandman 
Поважний учасник


З нами з: 12.08.12
Востаннє: 21.10.18
Повідомлень: 204

2017-07-29 20:32  
Дякую, фільм дуже приємний. Ну і за якість, звісно теж Happy
Uberwinder 
VIP


З нами з: 18.11.16
Востаннє: 21.10.18
Повідомлень: 267

2017-10-14 16:48  
Чудовий, добрий фільм!
gesko 
Новенький


З нами з: 16.02.17
Востаннє: 21.10.18
Повідомлень: 12

2017-10-14 20:39  
Супер стрічка!
igor911 
Відео Гуртом
Відео Гуртом


З нами з: 18.01.08
Востаннє: 22.10.18
Повідомлень: 11263

2017-10-26 14:09  
На Blu-ray [EUR] є якісніша українська доріжка.
IronBee 
Поважний учасник


З нами з: 08.02.10
Востаннє: 21.10.18
Повідомлень: 208

2017-10-28 18:24  
Оновлено доріжку та субтитри з iTunse на BluRay 5.1 448 кб/с
igor911 
Відео Гуртом
Відео Гуртом


З нами з: 18.01.08
Востаннє: 22.10.18
Повідомлень: 11263

2017-10-28 18:33  
IronBee, онови медіаінфо, будь ласка.
IronBee 
Поважний учасник


З нами з: 08.02.10
Востаннє: 21.10.18
Повідомлень: 208

2017-10-28 20:06  
Обновив
Kapters 
Новенький


З нами з: 08.12.13
Востаннє: 21.10.18
Повідомлень: 11

2017-10-29 00:45  
Фільм дуже сподобався. Щирий і теплий.
Раджу до перегляду. Один з найкращих фільмів на подібні теми.
Дівчинка зіграла суперово!

Ваш часовий пояс: GMT + 2 Години

Нова тема   Відповісти