Колонія Дігнідад / Colonia (2015) Remux 1080p Ukr/Eng | Sub Eng

Нові коментарі

Нова тема   Відповісти
Автор Повідомлення
IronBee 
Поважний учасник


З нами з: 08.02.10
Востаннє: 24.09.20
Повідомлень: 231

2017-07-23 11:24  
Колонія Дігнідад / Colonia (2015) Remux 1080p Ukr/Eng | Sub Eng

Колонія Дігнідад / Colonia (2015) Remux 1080p Ukr/Eng | Sub Eng


Жанр: драма, трилер, історичний
Країна: Німеччина, Франція, Люксембург



Кінокомпанія: Majestic Filmproduktion, Iris Productions, Rat Pack Filmproduktion
Режисер: Флоріан Галленбергер
Актори: Емма Вотсон, Даніель Брюль, Мікаел Нюквіст, Риченда Кері Вікі Кріпс, Джинн Вернер

Сюжет:
Молода закохана німецька пара - стюардеса Олена і журналіст Даніель - опиняються в епіцентрі кривавого військового перевороту в Чилі.
Даніеля заарештовують, піддають немислимим катуванням таємної поліції і відправляють в колонію «Дігнідад» - німецьке поселення,
котре видає себе за благодійне товариство, а насправді практично концтабір.
Туди ж - добровільно, під виглядом черниці - відправляється і Олена, щоб врятувати коханого.
У Дігнідад легко потрапити, але дороги назад немає ...


Тривалість: 01:49:54
Якість: Remux
Відео:
кодек:
розмір кадру: 1920 х 1080
бітрейт: 21,9 Мб/с

Аудіо # 1:
мова: українська
переклад: багатоголосий закадровий
кодек: 2.0
бітрейт: 192 кб/с

Аудіо # 2:
мова: англійська
переклад: оригінал
кодек: 5.1
бітрейт: 1509 кб/с

Субтитри:
мова: англійська
тип: програмні (м'які)
формат: *.srt
Info
General
Unique ID : 206983349145518269646659399023569694420 (0x9BB78B02C302FFE99F618020D7946ED4)
Complete name : E:\Films\Colonia (2015) Remux 1080p Ukr Eng. Sub Eng [Hurtom].
Format :
Format version : Version 4 / Version 2
File size : 19.6 GiB
Duration : 1 h 49 min
Overall bit rate mode : Variable
Overall bit rate : 25.5 Mb/s
Movie name : Colonia.2015.Remux.1080p.ExKinoRay
Encoded date : UTC 2017-07-23 07:30:17
Writing application : v13.0.0 ('The Juggler') 64bit
Writing library : libebml v1.3.4 + v1.4.5

Video
ID : 1
Format : AVC
Format/Info : Advanced Video Codec
Format profile : [email protected]
Format settings, CABAC : Yes
Format settings, ReFrames : 4 frames
Codec ID : V_MPEG4/ISO/AVC
Duration : 1 h 49 min
Bit rate mode : Variable
Bit rate : 21.9 Mb/s
Maximum bit rate : 38.0 Mb/s
Width : 1 920 pixels
Height : 1 080 pixels
Display aspect ratio : 16:9
Frame rate mode : Constant
Frame rate : 23.976 (24000/1001) FPS
Color space : YUV
Chroma subsampling : 4:2:0
Bit depth : 8 bits
Scan type : Progressive
Bits/(Pixel*Frame) : 0.441
Stream size : 16.8 GiB (86%)
Language : English
Default : Yes
Forced : No

Audio #1
ID : 2
Format : AC-3
Format/Info : Audio Coding 3
Mode extension : CM (complete main)
Format settings, Endianness : Big
Codec ID : A_AC3
Duration : 1 h 49 min
Bit rate mode : Constant
Bit rate : 192 kb/s
Channel(s) : 2 channels
Channel positions : Front: L R
Sampling rate : 48.0 kHz
Frame rate : 31.250 FPS (1536 spf)
Bit depth : 16 bits
Compression mode : Lossy
Stream size : 151 MiB (1%)
Default : Yes
Forced : No

Audio #2
ID : 3
Format :
Format/Info : Digital Theater Systems
Format profile : MA / Core
Mode : 16
Format settings, Endianness : Big
Codec ID : A_DTS
Duration : 1 h 49 min
Bit rate mode : Variable / Constant
Bit rate : 3 412 kb/s / 1 509 kb/s
Channel(s) : 6 channels
Channel positions : Front: L C R, Side: L R, LFE
Sampling rate : 48.0 kHz
Frame rate : 93.750 FPS (512 spf)
Bit depth : 24 bits
Compression mode : Lossless / Lossy
Stream size : 2.62 GiB (13%)
Title : Original
Language : English
Default : No
Forced : No

Text #1
ID : 4
Format : UTF-8
Codec ID : S_TEXT/UTF8
Codec ID/Info : UTF-8 Plain Text
Duration : 1 h 42 min
Bit rate : 33 b/s
Count of elements : 1094
Stream size : 25.4 KiB (0%)
Language : English
Default : No
Forced : No

Text #2
ID : 5
Format : UTF-8
Codec ID : S_TEXT/UTF8
Codec ID/Info : UTF-8 Plain Text
Duration : 1 h 43 min
Bit rate : 40 b/s
Count of elements : 1019
Stream size : 30.5 KiB (0%)
Title : SDH
Language : English
Default : No
Forced : No
Скріншоти



Підтримати купівлю інших фільмів можна тут.


Подяка пану Hanway за синхронізацію доріжки.

Джерело: &
Особиста оцінка: 8 - мені сподобалося


Золотий реліз (завантажене не впливає на рейтинг)
 Трекер:    Зареєстрований   

Завантажити / скачати фільм українською



відео для новачків



 Зареєстрований:   2017-07-23 11:24
 Розмір:   19.6 GB 
 Оцінка фільму:   8.6/10 (Голосів: 8)
   
Інші релізи
   Колонія Дігнідад / Colonia (2015) 720p Ukr/Eng | Sub Eng igor911  2 / 0   5.76 GB   2017-07-27 23:39 
   Колонія Дігнідад / Colonia (2015) 1080p Ukr/Eng | Sub Eng IronBee  2 / 0   11.62 GB   2017-07-25 17:48 
   Колонія Дігнідад / Colonia (2015) AVC Ukr/Eng | Sub Eng vovikmar  4 / 0   2.37 GB   2017-07-19 19:39 
   Колонія Дігнідад / Colonia (2015) AngryBirdsUA  3 / 0   1.45 GB   2017-07-19 08:49 
v.fonic 
Новенький


З нами з: 05.12.14
Востаннє: 24.09.20
Повідомлень: 8

2017-07-24 22:49  
Пережміть хтось будь ласка в десь на гектарів 7-8
sandman 
VIP


З нами з: 12.08.12
Востаннє: 25.09.20
Повідомлень: 364

2017-07-27 15:14  
v.fonic прямо над вашим постом спойлер "інші релізи" - обирайте розмір до душі. Ну і пошук ще ніхто не відміняв
igor911 
Модератор відео


З нами з: 18.01.08
Востаннє: 26.09.20
Повідомлень: 15006

2017-07-27 23:51  
v.fonic, 720p
hetzendorf 
Попереджень: 2
Попереджень: 2 


З нами з: 23.07.15
Востаннє: 26.09.20
Повідомлень: 2876

2018-10-22 15:42  
А нам би одверто агітки лукаві
Розбити об святість твердої руки!
Та іменем нашим свої чорні справи
Сьогодні прикрили лівацькі полки…

© Орест Лютий

Детальні пояснення там: https://toloka.to/t83027#1037907

Ваш часовий пояс: GMT + 2 Години

Нова тема   Відповісти