Кіт Грім і зачарований дім / The House of Magic (2013) 1080p 2xUkr/Eng

Нові коментарі

Нова тема   Відповісти
Автор Повідомлення
sergiyko.5 
VIP


З нами з: 25.02.16
Востаннє: 18.08.17
Повідомлень: 986

2017-07-22 23:58  
Кіт Грім і зачарований дім / The House of Magic (2013) 1080p 2xUkr/Eng

Кіт Грім і зачарований дім / The House of Magic (2013) 1080p 2xUkr/Eng

Жанр: анімація, пригодницький, комедія
Країна: Бельгія, Франція, Велика Британія
Кінокомпанія: nWave Pictures, Studio Canal International, Anton Capital Entertainment (ACE)

Режисер: Джеремі Деґрусон, Бен Стассен
Актори: Сінда Адамс, Едвард Еснер, Емілі Блант, Юджин Леві, Джої Камен, Ґрант Джордж, Юен МакҐреґор, Рон Перлмен, Вільям Шетнер, Кіфер Сазерленд

Сюжет:
Цікавий рудий кіт потрапляє в будинок старого фокусника і дізнається секрет його трюків. Так починається його знайомство з вченими звірами і живими іграшками, а також вас чекають неймовірні пригоди сповнені гумору і небезпек!




Тривалість: 01:25:08
Якість:

Відео: кодек: розмір кадру: 1920 х 1080 бітрейт: 4200 кб/с
Аудіо # 1: мова: українська переклад: професійний дубльований кодек: 5.1 бітрейт: 448 кб/с | Ліцензія |
Аудіо # 2: мова: українська переклад: багатоголосий закадровий кодек: 2.0 бітрейт: 192 кб/с
Аудіо # 3: мова: англійська переклад: оригінал кодек: 5.1 бітрейт: 640 кб/с
Про файл:
General
Unique ID : 241898408038801560406598227972191247238 (0xB5FBF05231321BCF99AAB7F778C15B86)
Complete name : D:\Content\The.House.Of.Magic.2013.1080p..Ukr.Eng.
Format :
Format version : Version 4 / Version 2
File size : 3.34 GiB
Duration : 1h 25mn
Overall bit rate : 5 620 Kbps
Movie name : The House of Magic (2013)
Encoded date : UTC 2017-07-23 06:17:21
Writing application : mkvmerge v13.0.0 ('The Juggler') 64bit
Writing library : libebml v1.3.4 + libmatroska v1.4.5
Attachements : cover.jpeg
DURATION : 01:25:08.032000000
NUMBER_OF_FRAMES : 159626
NUMBER_OF_BYTES : 122592768
_STATISTICS_WRITING_APP : mkvmerge v13.0.0 ('The Juggler') 64bit
_STATISTICS_WRITING_DATE_UTC : 2017-07-23 06:17:21
_STATISTICS_TAGS : BPS DURATION NUMBER_OF_FRAMES NUMBER_OF_BYTES

Video
ID : 1
Format : AVC
Format/Info : Advanced Video Codec
Format profile : [email protected]
Format settings, CABAC : Yes
Format settings, ReFrames : 4 frames
Codec ID : V_MPEG4/ISO/AVC
Duration : 1h 25mn
Bit rate : 4 228 Kbps
Width : 1 920 pixels
Height : 1 080 pixels
Display aspect ratio : 16:9
Frame rate mode : Constant
Frame rate : 23.976 fps
Color space : YUV
Chroma subsampling : 4:2:0
Bit depth : 8 bits
Scan type : Progressive
Bits/(Pixel*Frame) : 0.085
Stream size : 2.51 GiB (75%)
Title : The.House.Of.Magic.2013.1080p..Ukr.Eng
Writing library : core 146 r2538 121396c
Encoding settings : cabac=1 / ref=4 / deblock=1:-1:-1 / analyse=0x3:0x133 / me=umh / subme=10 / psy=1 / psy_rd=0.40:0.00 / mixed_ref=1 / me_range=32 / chroma_me=1 / trellis=2 / 8x8dct=1 / cqm=0 / deadzone=21,11 / fast_pskip=1 / chroma_qp_offset=-2 / threads=4 / lookahead_threads=1 / sliced_threads=0 / nr=0 / decimate=1 / interlaced=0 / bluray_compat=0 / constrained_intra=0 / bframes=6 / b_pyramid=2 / b_adapt=2 / b_bias=0 / direct=3 / weightb=1 / open_gop=0 / weightp=2 / keyint=250 / keyint_min=23 / scenecut=40 / intra_refresh=0 / rc_lookahead=60 / rc=crf / mbtree=1 / crf=18.0 / qcomp=0.60 / qpmin=0 / qpmax=69 / qpstep=4 / ip_ratio=1.40 / aq=1:0.60
Language : English
Default : Yes
Forced : No
DURATION : 01:25:08.070000000
NUMBER_OF_FRAMES : 122471
NUMBER_OF_BYTES : 2769554534
_STATISTICS_WRITING_APP : mkvmerge v13.0.0 ('The Juggler') 64bit
_STATISTICS_WRITING_DATE_UTC : 2017-07-23 06:17:21
_STATISTICS_TAGS : BPS DURATION NUMBER_OF_FRAMES NUMBER_OF_BYTES

Audio #1
ID : 2
Format : AC-3
Format/Info : Audio Coding 3
Mode extension : CM (complete main)
Format settings, Endianness : Big
Codec ID : A_AC3
Duration : 1h 25mn
Bit rate mode : Constant
Bit rate : 448 Kbps
Channel(s) : 6 channels
Channel positions : Front: L C R, Side: L R, LFE
Sampling rate : 48.0 KHz
Compression mode : Lossy
Delay relative to video : 13ms
Stream size : 273 MiB (8%)
Title : DUB 5.1ch
Language : Ukrainian
Default : Yes
Forced : No

Audio #2
ID : 3
Format : AC-3
Format/Info : Audio Coding 3
Mode extension : CM (complete main)
Format settings, Endianness : Big
Codec ID : A_AC3
Duration : 1h 25mn
Bit rate mode : Constant
Bit rate : 192 Kbps
Channel(s) : 2 channels
Channel positions : Front: L R
Sampling rate : 48.0 KHz
Compression mode : Lossy
Delay relative to video : 13ms
Stream size : 117 MiB (3%)
Title : MOV 2.0ch | ТЕТ
Language : Ukrainian
Default : No
Forced : No

Audio #3
ID : 4
Format : AC-3
Format/Info : Audio Coding 3
Mode extension : CM (complete main)
Format settings, Endianness : Big
Codec ID : A_AC3
Duration : 1h 25mn
Bit rate mode : Constant
Bit rate : 640 Kbps
Channel(s) : 6 channels
Channel positions : Front: L C R, Side: L R, LFE
Sampling rate : 48.0 KHz
Compression mode : Lossy
Delay relative to video : 13ms
Stream size : 390 MiB (11%)
Title : Original
Language : English
Default : No
Forced : No

Menu
00:00:00.000 : en:
00:06:48.208 : en:
00:10:31.125 : en:
00:15:50.500 : en:
00:18:34.333 : en:
00:22:09.500 : en:
00:24:52.917 : en:
00:26:57.917 : en:
00:30:07.125 : en:
00:34:09.958 : en:
00:37:41.458 : en:
00:40:49.792 : en:
00:44:49.708 : en:
00:52:02.500 : en:
00:55:53.875 : en:
01:01:10.250 : en:
01:06:53.542 : en:
01:11:47.500 : en:
01:16:22.708 : en:
01:20:31.542 : en:
Скріншоти:


Джерело: власний ріп


 Трекер:    Зареєстрований   

Завантажити / скачати мультфільм українською



відео для новачків



 Зареєстрований:   2017-07-23 09:29
 Розмір:   3.34 GB 
 Оцінка мультфільму:   10/10 (Голосів: 9)
   
igor911 
Відео Гуртом
Відео Гуртом


З нами з: 18.01.08
Востаннє: 18.08.17
Повідомлень: 7276

2017-07-23 09:47  
Треба вказати в назві теми та заголовку наявність 2х укр.доріжок та вказати їх джерело в описі. Ну і варто в 1080р все ж таки додавати укр. 5.1 1510 кб/с.
piznajko 
Відео Гуртом - субтитрування
Відео Гуртом - субтитрування


З нами з: 24.02.09
Востаннє: 18.08.17
Повідомлень: 1324

2017-07-30 20:04  
Звідки доріжка від ТЕТ? На інших роздачах її немає.
sergiyko.5 
VIP


З нами з: 25.02.16
Востаннє: 18.08.17
Повідомлень: 986

2017-07-30 22:49  
piznajko написано:
Звідки доріжка від ТЕТ? На інших роздачах її немає.


Записав, звів, ще й ріпнув.

Ваш часовий пояс: GMT + 2 Години

Нова тема   Відповісти