Хлопчик - Фантом / Phantom Boy (2015) - AVC

Нові коментарі

Нова тема   Відповісти
Автор Повідомлення
Anonymous 







2017-07-22 16:10  
Хлопчик-Фантом / Phantom Boy (2015) AVC

Хлопчик - Фантом / Phantom Boy (2015) - AVC


Жанр: анімація, фентезі
Країна: Франція, Бельгія



Кінокомпанія: Folimage, Lunanime, France 3 Cinéma, Rhône-Alpes Cinéma
Режисер: Жан-Луп Фелісіолі, Ален Ганьоль
Ролі озвучують: Едуар Баер — Алекс, Жан-П'єр Мар'єль — людина з розбитим обличчям, Одрі Тоту — Марі

Сюжет:
Лео, 11-річний хлопчик з Нью-Йорка, є незвичайною дитиною: він може ставати невидимим і літати крізь стіни. Він дружить з поліцейським Алексом, який тимчасово прикутий до інвалідного крісла через таємничого гангстера. Лео в повітрі і Алекс на землі формують екстраординарну команду, яка захищає журналістку Марі, і рятує Нью-Йорк від руйнування.


Тривалість: 01:24:22
Якість: AVC
Відео:
кодек:
розмір кадру: 1024х576
бітрейт: 2200 кб/с

Аудіо:
мова: українська
переклад: двоголосий закадровий з
кодек: 2.0
бітрейт: 192 кб/с
Скріншоти





МедіаІнфо
General
Unique ID : 108398633660380072477745564440437024706 (0x518CD14462806ECE6AEBCD936BBD67C2)
Complete name : E:\Phantom Boy.AVC[HURTOM].
Format :
Format version : Version 4 / Version 2
File size : 1.41 GiB
Duration : 1h 24mn
Overall bit rate : 2 395 Kbps
Writing application : Lavf57.25.100
Writing library : Lavf57.25.100

Video
ID : 1
Format : AVC
Format/Info : Advanced Video Codec
Format profile : [email protected]
Format settings, CABAC : Yes
Format settings, ReFrames : 10 frames
Codec ID : V_MPEG4/ISO/AVC
Duration : 1h 24mn
Bit rate : 2 200 Kbps
Width : 1 024 pixels
Height : 576 pixels
Display aspect ratio : 16:9
Frame rate mode : Constant
Frame rate : 24.000 fps
Color space : YUV
Chroma subsampling : 4:2:0
Bit depth : 8 bits
Scan type : Progressive
Bits/(Pixel*Frame) : 0.155
Stream size : 1.27 GiB (90%)
Writing library : core 146 r2538 121396c
Encoding settings : cabac=1 / ref=10 / deblock=1:1:1 / analyse=0x3:0x113 / me=umh / subme=8 / psy=1 / psy_rd=0.40:0.00 / mixed_ref=1 / me_range=16 / chroma_me=1 / trellis=1 / 8x8dct=1 / cqm=0 / deadzone=21,11 / fast_pskip=1 / chroma_qp_offset=-2 / threads=3 / lookahead_threads=1 / sliced_threads=0 / nr=0 / decimate=1 / interlaced=0 / bluray_compat=0 / constrained_intra=0 / bframes=5 / b_pyramid=2 / b_adapt=2 / b_bias=0 / direct=3 / weightb=1 / open_gop=0 / weightp=2 / keyint=250 / keyint_min=24 / scenecut=40 / intra_refresh=0 / rc_lookahead=50 / rc=2pass / mbtree=1 / bitrate=2200 / ratetol=1.0 / qcomp=0.60 / qpmin=0 / qpmax=69 / qpstep=4 / cplxblur=20.0 / qblur=0.5 / ip_ratio=1.40 / aq=1:0.60
Default : Yes
Forced : No
DURATION : 01:24:22.083000000

Audio
ID : 2
Format : AC-3
Format/Info : Audio Coding 3
Mode extension : CM (complete main)
Format settings, Endianness : Big
Codec ID : A_AC3
Duration : 1h 24mn
Bit rate mode : Constant
Bit rate : 192 Kbps
Channel(s) : 2 channels
Channel positions : Front: L R
Sampling rate : 48.0 KHz
Bit depth : 16 bits
Compression mode : Lossy
Delay relative to video : 22ms
Stream size : 116 MiB (8%)
Language : unknown
Default : Yes
Forced : No
DURATION : 01:24:22.022000000
Джерело:
Особиста оцінка: 8/10 чудова історія та непоганий музичний супровід.


 Трекер:    Зареєстрований   

Завантажити / скачати мультфільм українською



відео для новачків



 Зареєстрований:   2017-07-22 23:15
 Розмір:   1.41 GB 
 Оцінка мультфільму:   3.8/10 (Голосів: 16)
   
Virake 
Localize Team
Localize Team


З нами з: 07.07.09
Востаннє: 15.08.17
Повідомлень: 4452

2017-07-23 00:42  
дефіс між "" і "AVC" не має бути розбитий пробілами.

Додано через 1 хвилину 39 секунд:

так само і "Хлопчик - фантом", пробіли тут зайві

Hanway 
Відео Гуртом - запис з ТБ
Відео Гуртом - запис з ТБ


З нами з: 20.05.11
Востаннє: 18.08.17
Повідомлень: 488

2017-07-23 01:01  
Гм, голоси озвучення дуже схожі на Максима Михайличенка та Ірину Руденко з мультсеріалу Омер. Невже вони ще досі щось озвучують? Happy
Anonymous 







2017-07-23 11:43  
Hanway
я на іменах акторів не знаюсь, але голоси мені здались знайомі і таке враження, що ця озвучка мене перенесла у минуле, коли дивився тб малим.

Постапокаліптичний Батон 
Новенький


З нами з: 08.09.11
Востаннє: 19.08.17
Повідомлень: 24

2017-07-23 21:07  
А це озвучення з кінотеатру? Зауважив таку дивну річ, що в кінотеатрі Жовтень (Київ) час від часу показують мультфільми(здебільшого французькі) і фільми, які багато інших кінотеатрів чомусь ігнорує. Інформації про те, що був дубляж або озвучення до того чи іншого фільму чи мультфільму в мережі потім знайти неможливо, як і самого дубляжу. В 2015 чи 2016 році цей мульт показували в кінотеатрі. Також був показ "Wolfy, The Incredible Secret", нещодавно можна було подивитись "Кабачок", якого номінували на Оскар. А в 2014 році я ходив на фільм Террі Ґілліама "Теорема. Зеро", хоча сам фільм вийшов в 2013. Від нього лише трейлер залишився. Ще була "Казка казок"(дивне фентезі). Це абсурдно - втрачати такі шедеври. Не знаю, до кого звернутися, тому пишу сюди.Треба ж придумати, як вирішити це питання. За мультфільм величезне дякую! Дуже люблю європейську традиційну і лялькову анімацію.



krigg070 
Відео Гуртом - фільмокрай
Відео Гуртом - фільмокрай


З нами з: 29.10.14
Востаннє: 19.08.17
Повідомлень: 736

2017-07-23 21:16  
Anonymous
Ніби ж блюрей є.

igor911 
Відео Гуртом
Відео Гуртом


З нами з: 18.01.08
Востаннє: 19.08.17
Повідомлень: 7281

2017-07-23 23:53  
Постапокаліптичний Батон, по перше, пишеш не в тій темі (https://toloka.to/t78349 чи https://toloka.to/t67541), по друге, дивитись треба не на кінотеатр, а на прокатника, дистриб'ютора, хто ці фільми показує (зазвичай вказано на постері або на kino-teatr.ua). З того що ти написав, припускаю, що мова йде про Артхаус Tрафік, звук до їх фільмів більш-менш регулярно з'являється в нас.
Anonymous 







2017-07-24 00:25  
krigg070
Я не знайшов його, якщо знаєте де можна завантажити, був би вдячний за посилання.

Постапокаліптичний Батон написано:
Теорема. Зеро

У той час дуже хотів його побачити, але озвучення так і не було. Якщо ви часто ходите на таке, було б чудово як би ви записували звук на мікрофон, а тут вже люди його підгонять до відео.

Ваш часовий пояс: GMT + 2 Години

Нова тема   Відповісти