Імла (Сезон 1, Серії 1-4) / The Mist (Season 1, Episodes 1-4) (2017) 720p Eng | Sub Ukr

Нові коментарі

Нова тема   Відповісти
Автор Повідомлення
pskrm 
Новенький


З нами з: 04.03.17
Востаннє: 16.08.17
Повідомлень: 11

2017-07-22 11:28  
Імла (Сезон 1, Серії 1-4) / The Mist (Season 1, Episodes 1-4) (2017) 720p Eng | Sub Ukr

Імла (Сезон 1, Серії 1-4) / The Mist (Season 1, Episodes 1-4) (2017) 720p Eng | Sub Ukr


Жанр: драма, жахи
Країна: США



Кінокомпанія: Spike
Режисер: Адам Бернштейн, Девід Бойд
Актори: Алісса Сазерленд, Ґас Бірні, Люк Косґроув

Сюжет:
На маленьке містечко опустився моторошний непроглядний туман. Його жителям доведеться боротися за власне життя з таємничою імлою і тим, що ховається у ній, та спробувати зберегти людяність у непростий для них час.


Тривалість: 1 серія: 40 хв. (всього серій: 4 з 10)
Перелік серій

01. Pilot / Пілот
02. Withdrawal / Відступ
03. Show and Tell / Покажи і розкажи
04. Pequod / "Ессек"
Якість: 720p
Відео:
кодек:
розмір кадру: 1280 х 720
бітрейт: 1713 кб/с

Аудіо:
мова: англійська
переклад: оригінал
кодек: 2.0
бітрейт: 165 кб/с

Субтитри:
мова: українська
тип: програмні (м'які)
формат: *.srt

Субтитри :власний переклад
Info

General
Complete name : /home/django/Видиво/TheMist.s01e01.mp4
Format : MPEG-4
Format profile : Base Media
Codec ID : isom (isom/iso2/avc1/mp41)
File size : 449 MiB
Duration : 0h 48mn
Overall bit rate mode : Variable
Overall bit rate : 1 909 Kbps
Movie name : TheMist.s01e01.mp4
Encoded date : UTC 1904-01-01 00:00:00
Tagged date : UTC 1904-01-01 00:00:00
Writing application : Lavf56.40.101

Video
ID : 1
Format : AVC
Format/Info : Advanced Video Codec
Format profile : [email protected]
Format settings, CABAC : Yes
Format settings, ReFrames : 4 frames
Codec ID : avc1
Codec ID/Info : Advanced Video Coding
Duration : 0h 48mn
Bit rate : 1 734 Kbps
Width : 1 280 pixels
Height : 718 pixels
Display aspect ratio : 16:9
Frame rate mode : Variable
Frame rate : 23.976 fps
Minimum frame rate : 23.810 fps
Maximum frame rate : 24.390 fps
Color space : YUV
Chroma subsampling : 4:2:0
Bit depth : 8 bits
Scan type : Progressive
Bits/(Pixel*Frame) : 0.079
Stream size : 412 MiB (91%)
Writing library : core 148 r2643 5c65704
Encoding settings : cabac=1 / ref=1 / deblock=1:0:0 / analyse=0x1:0x111 / me=hex / subme=2 / psy=1 / psy_rd=1,00:0,00 / mixed_ref=0 / me_range=16 / chroma_me=1 / trellis=0 / 8x8dct=0 / cqm=0 / deadzone=21,11 / fast_pskip=1 / chroma_qp_offset=0 / threads=3 / lookahead_threads=1 / sliced_threads=0 / nr=0 / decimate=1 / interlaced=0 / bluray_compat=0 / constrained_intra=0 / bframes=3 / b_pyramid=2 / b_adapt=1 / b_bias=0 / direct=1 / weightb=1 / open_gop=0 / weightp=1 / keyint=240 / keyint_min=24 / scenecut=40 / intra_refresh=0 / rc_lookahead=10 / rc=crf / mbtree=1 / crf=20,0 / qcomp=0,60 / qpmin=0 / qpmax=69 / qpstep=4 / vbv_maxrate=20000 / vbv_bufsize=25000 / crf_max=0,0 / nal_hrd=none / filler=0 / ip_ratio=1,40 / aq=1:1,00
Encoded date : UTC 1904-01-01 00:00:00
Tagged date : UTC 1904-01-01 00:00:00
Color range : Limited
Color primaries : BT.709
Transfer characteristics : BT.709
Matrix coefficients : BT.709

Audio
ID : 2
Format :
Format/Info : Advanced Audio Codec
Format profile : LC
Codec ID : 40
Duration : 0h 48mn
Duration_LastFrame : 21ms
Bit rate mode : Constant
Bit rate : 168 Kbps
Channel(s) : 2 channels
Channel positions : Front: L R
Sampling rate : 48.0 KHz
Frame rate : 46.875 fps (1024 spf)
Compression mode : Lossy
Stream size : 20.2 MiB (9%)
Default : Yes
Alternate group : 1
Encoded date : UTC 1904-01-01 00:00:00
Tagged date : UTC 1904-01-01 00:00:00

Text
ID : 3
Format : Timed Text
Muxing mode : sbtl
Codec ID : tx3g
Duration : 0h 48mn
Bit rate mode : Variable
Bit rate : 66 bps
Stream size : 32.4 KiB (0%)
Language : Ukrainian
Default : Yes
Forced : No
Alternate group : 3
Encoded date : UTC 1904-01-01 00:00:00
Tagged date : UTC 1904-01-01 00:00:00
Скріншоти


Джерело:
Особиста оцінка: 8 - мені сподобалося


Золотий реліз (завантажене не впливає на рейтинг)
 Трекер:    Зареєстрований   

Завантажити / скачати серіал українською



відео для новачків



 Зареєстрований:   2017-07-31 07:21
 Розмір:   1.37 GB 
 Оцінка серіалу:   9/10 (Голосів: 13)
   
don pedro 
Попереджень: 1
Попереджень: 1 


З нами з: 29.06.11
Востаннє: 19.08.17
Повідомлень: 10046

2017-07-22 12:14  
На тлі цього серіалу навіть однойменний фільм Френка Дарабонта 2007 року за цією ж повістю Стівена Кінга виглядає чимось неймовірним. 5/10. Дешево і слабо. Причому, творці серіалу примудрились перетворити історію про вторгнення під прикриттям Туману чудовиськ з іншого Всесвіту на якесь мило з сімейно-містечковими сварками. Найсмішніше: з міркувань ощадливості у цьому серіалі майже відсутні самі чудовиська, якими перенасичені писання Кінга і фільм Дарабонта. До того ж, події (для чогось) розкидані різними будівлями, а не тільки супермаркетами.
sania2011 
Поважний учасник


З нами з: 25.02.11
Востаннє: 18.08.17
Повідомлень: 166

2017-07-22 12:47  
Судячи з рейтингу, це щось схоже на "Під куполом"
don pedro 
Попереджень: 1
Попереджень: 1 


З нами з: 29.06.11
Востаннє: 19.08.17
Повідомлень: 10046

2017-07-22 12:51  
sania2011
Значно гірше.

_hellisa 
Свій


З нами з: 26.02.17
Востаннє: 17.08.17
Повідомлень: 52

2017-07-31 08:08  
Реліз оновлено!

Додано 3-4 серії.

arikalumoto 
Новенький


З нами з: 03.03.15
Востаннє: 18.08.17
Повідомлень: 4

2017-08-16 14:24  
pskrm
інші серії будете перекладати? слід очікувати? чи доведеться дивитись москальскою...

_hellisa 
Свій


З нами з: 26.02.17
Востаннє: 17.08.17
Повідомлень: 52

2017-08-16 14:27  
arikalumoto
сьогодні-завтра будуть 5-7 серії.

Ваш часовий пояс: GMT + 2 Години

Нова тема   Відповісти