Хваран. Квітучі лицарі Сілли (Сезон 1) / 화랑 / Hwarang (Season 1) (2016-2017) 1080p Kor | Sub Ukr

Нові коментарі

Нова тема   Відповісти
Автор Повідомлення
Anonymous 







2017-07-21 20:45  
Хваран. Квітучі лицарі Сілли (Сезон 1) / 화랑 / Hwarang (Season 1) (2016-2017) 1080p Kor | Sub Ukr

Хваран. Квітучі лицарі Сілли (Сезон 1) / 화랑 / Hwarang (Season 1) (2016-2017) 1080p Kor | Sub Ukr
Постер - drakon87


Жанр: драма, історичний, романтичний, комедія
Країна: Південна Корея



Режисер: Юн Сон Сік
Актори: Ко А Ра, Пак Со Чжун, Пак Хьон Шік, Чхве Мін Хо, До Чжі Хан, Со Є Чжі, Кім Вон Хе та інші

Сюжет:
За часів династії Сілла, Чінхьон син скинутого короля і правлячої королеви-регента Чі Со, з дитинства, після смерті батька, ховається аби захиститися. Тим часом, протягом багатьох років могутні дворяни безуспішно намагалися узурпувати владу забравши трон в Чі Со, який пізніше вона навіть не прагнула передати. Коли її син виріс, вона створює Ховаран, елітну групу юнаків, які навчається бойових мистецтв та науки. Створення інституту, студентами якого стали представники сімей урядовців. Чінхьон прагнучи зійти на трон, вийти з тіні та знайти союзників вступає до Хварану під фальшивим іменем Кім Чжі Дві, як звичайний студент. І починається шлях до верхівки...


Тривалість: ~ 60 хв
Якість: 1080
Відео:
кодек:
розмір кадру: 1920 х 1080
бітрейт: ~ 5000 кб/с

Аудіо:
мова: корейська
переклад: оригінал
кодек: 2.0
бітрейт: 317 кб/с

Субтитри:
мова: українська
тип: програмні (м'які)
формат: *.ass
Скріншоти
Info

Format : MPEG-4
Format profile : Base Media
Codec ID : isom (isom/iso2/avc1/mp41)
File size : 2.20 GiB
Duration : 59 min 1 s
Overall bit rate mode : Variable
Overall bit rate : 5 342 kb/s
Writing application : MH ENCODER

Video
ID : 1
Format : AVC
Format/Info : Advanced Video Codec
Format profile : [email protected]
Format settings, CABAC : Yes
Format settings, ReFrames : 1 frame
Format settings, GOP : M=1, N=30
Codec ID : avc1
Codec ID/Info : Advanced Video Coding
Duration : 59 min 1 s
Bit rate : 5 018 kb/s
Width : 1 920 pixels
Height : 1 080 pixels
Display aspect ratio : 16:9
Frame rate mode : Constant
Frame rate : 29.970 (30000/1001) FPS
Color space : YUV
Chroma subsampling : 4:2:0
Bit depth : 8 bits
Scan type : Progressive
Bits/(Pixel*Frame) : 0.081
Stream size : 2.07 GiB (94%)

Audio
ID : 2
Format :
Format/Info : Advanced Audio Codec
Format profile : LC
Codec ID : 40
Duration : 59 min 1 s
Bit rate mode : Variable
Bit rate : 317 kb/s
Maximum bit rate : 328 kb/s
Channel(s) : 2 channels
Channel positions : Front: L R
Sampling rate : 48.0 kHz
Frame rate : 46.875 FPS (1024 spf)
Compression mode : Lossy
Stream size : 134 MiB (6%)
Default : Yes
Alternate group : 1

BambooUA

Переклад: Jastinnne
Редакція: Staysi_I

Особиста оцінка: 10 - без зайвих вагань рекомендую всім!


Авторський реліз (завантажувати можна без реєстрації)
 Трекер:    Зареєстрований   

Завантажити / скачати серіал українською



відео для новачків



 Зареєстрований:   2017-07-21 20:45
 Розмір:   45.46 GB 
 Оцінка серіалу:   1.6/10 (Голосів: 11)
   
Ваш часовий пояс: GMT + 2 Години

Нова тема   Відповісти