Балерина / Ballerina (2016) 1080p 3D [Half OverUnder] Ukr/Eng | Sub Eng

Нові коментарі

Нова тема   Відповісти
Останній раз роздавалося ukipower77 (2017-08-16)
Автор Повідомлення
Babamin 
Частий відвідувач


З нами з: 29.12.15
Востаннє: 17.08.17
Повідомлень: 26

2017-07-21 00:44  
Балерина / Ballerina (2016) 1080p 3D [Half OverUnder] Ukr/Eng | Sub Eng

Балерина / Ballerina (2016) 1080p 3D [Half OverUnder] Ukr/Eng | Sub Eng
«Дива починаються з мрії!»


Жанр: анімація, мюзикл, сімейний
Країна: Франція, Канада



Кінокомпанія: Caramel Film, Quad Productions
Режисер: Ерік Саммер, Ерік Ворін
Актори: Елль Феннінґ, Дейн ДеГаан, Медді Зіґлер, Карлі Рей Джепсен, Камілла Коттен, Елана Дункельман, Джулі Ганер, Кейсі Чейз, Шошана Спелінґ, Лорен Морель та інші

Сюжет:
Історія розповість нам про маленьку 11-річну сирітку Фелісі Міллінер, яка дуже мріє стати балериною, а тому приїжджає в Париж у 1879 році разом зі своїм другом, винахідником Віктором. Дівчинка йде в престижну школу балету, де їй доведеться дуже багато працювати. Одного бажання для втілення мрії мало, коли доводиться боротися з талановитими і підготовленими суперницями. Коли кожен день зі школи вилітає по одній дівчинці, Фелісі повинна працювати більше всіх, щоб довести, що вона – справжня балерина.

Тривалість: 01:29:23
Якість: 1080p 3D [Half OverUnder]
Контейнер:

Відео:
кодек:
розмір кадру: 1920 х 1080
бітрейт: 6074 кб/с
Відео для перегляду на 3D обладнанні!

Аудіо # 1:
мова: українська
переклад: професійний дубльований
кодек: 5.1
бітрейт: 384 кб/с

Аудіо # 2:
мова: англійська
переклад: оригінал
кодек: 5.1
бітрейт: 448 кб/с

Субтитри :
мова: англійська (повні)
тип: програмні (м'які)
формат: *.srt
Info:
Complete name : Ballerina.(2016).3D.HOU..1080p.[UKR_ENG].[Hurtom].
Format :
Format version : Version 4 / Version 2
File size : 4.31 GiB
Duration : 1 h 29 min
Overall bit rate : 6 907 kb/s
Movie name : Ballerina (2016) 3D HOU 1080p [UKR_ENG] [Hurtom]
Encoded date : UTC 2017-07-20 21:22:07
Writing application : mkvmerge v12.0.0 ('Trust / Lust') 64bit
Writing library : libebml v1.3.4 + libmatroska v1.4.5

Video
ID : 1
Format : AVC
Format/Info : Advanced Video Codec
Format profile : [email protected]
Format settings, CABAC : Yes
Format settings, ReFrames : 4 frames
Codec ID : V_MPEG4/ISO/AVC
Duration : 1 h 29 min
Bit rate : 6 074 kb/s
Width : 1 920 pixels
Height : 1 080 pixels
Display aspect ratio : 16:9
Frame rate mode : Constant
Frame rate : 23.976 (24000/1001) FPS
Color space : YUV
Chroma subsampling : 4:2:0
Bit depth : 8 bits
Scan type : Progressive
Bits/(Pixel*Frame) : 0.122
Stream size : 3.79 GiB (88%)
Title : Ballerina.(2016).3D.HOU..1080p.[Hurtom]
Writing library : core 148 r2744 b97ae06
Encoding settings : cabac=1 / ref=4 / deblock=1:1:1 / analyse=0x3:0x133 / me=umh / subme=10 / psy=1 / psy_rd=0.70:0.00 / mixed_ref=0 / me_range=32 / chroma_me=1 / trellis=2 / 8x8dct=1 / cqm=0 / deadzone=21,11 / fast_pskip=1 / chroma_qp_offset=-1 / threads=4 / lookahead_threads=1 / sliced_threads=0 / nr=0 / decimate=0 / interlaced=0 / bluray_compat=0 / constrained_intra=0 / bframes=10 / b_pyramid=2 / b_adapt=2 / b_bias=0 / direct=1 / weightb=1 / open_gop=1 / weightp=2 / keyint=240 / keyint_min=23 / scenecut=80 / intra_refresh=0 / rc_lookahead=40 / rc=crf / mbtree=0 / crf=16.5 / qcomp=0.60 / qpmin=0 / qpmax=69 / qpstep=4 / vbv_maxrate=40000 / vbv_bufsize=30000 / crf_max=0.0 / nal_hrd=none / filler=0 / frame-packing=4 / ip_ratio=1.40 / pb_ratio=1.30 / aq=1:0.60
Default : Yes
Forced : No

Audio #1
ID : 2
Format : AC-3
Format/Info : Audio Coding 3
Format settings, Endianness : Big
Codec ID : A_AC3
Duration : 1 h 29 min
Bit rate mode : Constant
Bit rate : 384 kb/s
Channel(s) : 6 channels
Channel positions : Front: L C R, Side: L R, LFE
Sampling rate : 48.0 kHz
Frame rate : 31.250 FPS (1536 spf)
Bit depth : 16 bits
Compression mode : Lossy
Stream size : 245 MiB (6%)
Title : iTunes
Language : Ukrainian
Service kind : Complete Main
Default : No
Forced : No

Audio #2
ID : 3
Format : AC-3
Format/Info : Audio Coding 3
Format settings, Endianness : Big
Codec ID : A_AC3
Duration : 1 h 29 min
Bit rate mode : Constant
Bit rate : 448 kb/s
Channel(s) : 6 channels
Channel positions : Front: L C R, Side: L R, LFE
Sampling rate : 48.0 kHz
Frame rate : 31.250 FPS (1536 spf)
Bit depth : 16 bits
Compression mode : Lossy
Stream size : 286 MiB (6%)
Language : English
Service kind : Complete Main
Default : Yes
Forced : No

Text
ID : 4
Format : UTF-8
Codec ID : S_TEXT/UTF8
Codec ID/Info : UTF-8 Plain Text
Duration : 1 h 27 min
Bit rate : 56 b/s
Count of elements : 1330
Stream size : 36.2 KiB (0%)
Title : full
Language : English
Default : Yes
Forced : No

Menu
00:00:00.000 : en:Chapter 01
00:04:54.000 : en:Chapter 02
00:10:58.291 : en:Chapter 03
00:13:54.125 : en:Chapter 04
00:18:00.875 : en:Chapter 05
00:23:18.750 : en:Chapter 06
00:28:03.541 : en:Chapter 07
00:32:55.000 : en:Chapter 08
00:36:14.458 : en:Chapter 09
00:41:19.833 : en:Chapter 10
00:44:54.708 : en:Chapter 11
00:50:25.000 : en:Chapter 12
00:56:41.791 : en:Chapter 13
01:02:39.458 : en:Chapter 14
01:08:48.750 : en:Chapter 15
01:13:12.666 : en:Chapter 16
01:17:43.958 : en:Chapter 17
01:22:49.916 : en:Chapter 18
Скріншоти:






Джерело:


 Трекер:    Зареєстрований   

Завантажити / скачати мультфільм українською



відео для новачків



 Зареєстрований:   2017-07-21 00:44
 Розмір:   4.31 GB 
 Оцінка мультфільму:   10/10 (Голосів: 1)
   
Інші релізи
   Балерина / Ballerina (2016) AVC Ukr/Eng | Sub Eng 11FrYkT  80 / 4   1.44 GB   2017-04-15 08:26 
   Балерина / Ballerina (2016) Remux 1080p Ukr/Fre/Eng | Sub Fre/Eng igor911  10 / 4   21.89 GB   2017-04-15 00:55 
   Балерина / Ballerina (2016) 1080p Ukr/Eng | Sub Eng Electroz  45 / 5   5.31 GB   2017-04-14 16:37 
   Балерина / Ballerina (2016) Gelios  119 / 2   1.45 GB   2017-04-14 06:48 
   Балерина / Ballerina (2016) 720p Ukr/Eng | Sub Eng 11FrYkT  35 / 0   3.33 GB   2017-04-13 23:37 
Ваш часовий пояс: GMT + 2 Години

Нова тема   Відповісти