Напролом / The Hard Way (1991) 2xUkr/Eng | Sub Eng

Нові коментарі

Нова тема   Відповісти
Автор Повідомлення
Anonymous 







2017-07-20 17:27  
Напролом / The Hard Way (1991) 2xUkr/Eng | Sub Eng

Напролом / The Hard Way (1991) 2xUkr/Eng | Sub Eng
Альтернативна обкладинка


повнорозмірні зображення відкриються по кліку (з натиснутим CTRL чи кліком середньою кнопкою мишки - у новій вкладці)

Жанр: бойовик, комедія, кримінальний
Країна: США



Кінокомпанія: Universal Pictures, Badham-Cohen Group
Режисер: Джон Бедем / John Badham
Актори: Майкл Джей Фокс / Michael J. Fox, Джеймс Вудс / James Woods, Стівен Ленг / Stephen Lang, Аннабелла Шіорра / Annabella Sciorra, Джон Каподіче / John Capodice, Луїс Гузман / Luis Guzmán, Л.Л. Кул Джей / LL Cool J, Мері Мара / Mary Mara, Делрой Ліндо / Delroy Lindo, Конрад Робертс / Conrad Roberts, Пенні Маршалл / Penny Marshall, Крістіна Річчі / Christina Ricci та інші

Сюжет:
Голлівудський актор Нік Ленг (Майкл Джей Фокс) хоче зіграти роль відважного детектива. Але для цього йому потрібно дізнатися, як бути поліцейськім в реальному житті. По телевізору Нік бачить лейтенанта Джона Мосса (Джеймс Вудс) який дає інтерв'ю після того, як упустив серійного вбивцю (Стівен Ленг). Щоб якнайкраще дізнатися про свій новий персонаж, Ленг відправляється в Нью-Йорк, де знайомиться з Моссом, який повинен допомогти йому освоїти поліцейські прийоми. Всупереч наказам начальства Джон продовжує полювання за небезпечним маніяком, а в цей час голлівудська знаменитість всіляко плутається у нього під ногами.


Тривалість: 01:50:44
Якість:
Відео:
кодек:
розмір кадру: 720 х 304
бітрейт: 2026 кб/с

Аудіо # 1:
мова: українська
переклад: багатоголосий закадровий
кодек: 2.0 [стерео]
бітрейт: 192 кб/с
примітка: ім'я персонажа Party Crasher озвучено як "Кайфолом"

Аудіо # 2:
мова: українська
переклад: двоголосий закадровий
кодек: 2.0
бітрейт: 192 кб/с
ролі озвучили: Олег Лепенець і Наталя Ярошенко
примітка: ім'я персонажа Party Crasher озвучено як "Лейтенант Гуляка"

Аудіо # 3:
мова: англійська
переклад: оригінал
кодек: 2.0
бітрейт: 192 кб/с

Субтитри:
мова: англійська (завантажити: повні, SDH)
тип: програмні (м'які)
формат: *.srt
Info
Код:
General
Complete name               : The Hard Way (1991) [2xUkr,Eng] [Hurtom].avi
Format                      : AVI
Format/Info                 : Audio Video Interleave
Format profile              : OpenDML
File size                   : 2.03 GiB
Duration                    : 1 h 50 min
Overall bit rate            : 2 627 kb/s
Movie name                  : Напролом / The Hard Way (1991) 2xUkr/Eng
Genre                       : бойовик, комедія, кримінальний
Writing application         : VirtualDubModUkr 1.5.10.2 (build 2542/release)
Writing library             : VirtualDubMod build 2542/release
Copyright                   : Hurtom & HQClub
Comment                     : https://toloka.to/t83046 http://www.imdb.com/title/tt0102004/

Video
ID                          : 0
Format                      : MPEG-4 Visual
Format profile              : Advanced [email protected]
Format settings, BVOP       : 1
Format settings, QPel       : No
Format settings, GMC        : No warppoints
Format settings, Matrix     : Custom
Codec ID                    :
Codec ID/Hint               :
Duration                    : 1 h 50 min
Bit rate                    : 2 026 kb/s
Width                       : 720 pixels
Height                      : 304 pixels
Display aspect ratio        : 2.35:1
Frame rate                  : 23.976 (24000/1001) FPS
Color space                 : YUV
Chroma subsampling          : 4:2:0
Bit depth                   : 8 bits
Scan type                   : Progressive
Compression mode            : Lossy
Bits/(Pixel*Frame)          : 0.386
Stream size                 : 1.57 GiB (77%)
Writing library             : 65

Audio #1
ID                          : 1
Format                      : AC-3
Format/Info                 : Audio Coding 3
Format settings, Endianness : Big
Codec ID                    : 2000
Duration                    : 1 h 50 min
Bit rate mode               : Constant
Bit rate                    : 192 kb/s
Channel(s)                  : 2 channels
Channel positions           : Front: L R
Sampling rate               : 48.0 kHz
Frame rate                  : 31.250 FPS (1536 SPF)
Bit depth                   : 16 bits
Compression mode            : Lossy
Stream size                 : 152 MiB (7%)
Alignment                   : Split accross interleaves
Interleave, duration        : 42  ms (1.00 video frame)
Interleave, preload duratio : 500  ms
Title                       : UKR MVO VOLYA CINE+
Service kind                : Complete Main

Audio #2
ID                          : 2
Format                      : AC-3
Format/Info                 : Audio Coding 3
Format settings, Endianness : Big
Codec ID                    : 2000
Duration                    : 1 h 50 min
Bit rate mode               : Constant
Bit rate                    : 192 kb/s
Channel(s)                  : 2 channels
Channel positions           : Front: L R
Sampling rate               : 48.0 kHz
Frame rate                  : 31.250 FPS (1536 SPF)
Bit depth                   : 16 bits
Compression mode            : Lossy
Stream size                 : 152 MiB (7%)
Alignment                   : Split accross interleaves
Interleave, duration        : 42  ms (1.00 video frame)
Interleave, preload duratio : 500  ms
Title                       : UKR DVO Novyj
Service kind                : Complete Main

Audio #3
ID                          : 3
Format                      : AC-3
Format/Info                 : Audio Coding 3
Format settings, Endianness : Big
Codec ID                    : 2000
Duration                    : 1 h 50 min
Bit rate mode               : Constant
Bit rate                    : 192 kb/s
Channel(s)                  : 2 channels
Channel positions           : Front: L R
Sampling rate               : 48.0 kHz
Frame rate                  : 31.250 FPS (1536 SPF)
Bit depth                   : 16 bits
Compression mode            : Lossy
Stream size                 : 152 MiB (7%)
Alignment                   : Split accross interleaves
Interleave, duration        : 42  ms (1.00 video frame)
Interleave, preload duratio : 500  ms
Title                       : ENG
Service kind                : Complete Main

Джерело: &
Аудіо #1: запис з Воля Cine+ Legend - Sando7, синхронізація - igor911; аудіо #2: вихідна українська доріжка з Нового - Givi та Merdiff, синхронізація під - igor911, постер - hellforces, допомога у вдосконаленні релізу - 21jumpstreet.


Срібний реліз (на рейтинг впливає 50% завантаженого)
 Трекер:    Зареєстрований   

Завантажити / скачати фільм українською



відео для новачків



 Зареєстрований:   2017-07-21 10:31
 Розмір:   2.03 GB 
 Оцінка фільму:   4.6/10 (Голосів: 19)
   
Інші релізи
   Напролом / The Hard Way (1991) 720p 2xUkr/Eng | Sub Eng igor911  6 / 0   4.03 GB   2017-07-21 11:17 
   Напролом / The Hard Way (1991) [MP4, 640x] apvAltisimo  1 / 0   738 MB   2016-12-27 18:33 
Anonymous 







2017-07-20 17:49  
720p
Anonymous 







2017-07-21 10:35  
Реліз оновлено - додано доріжку з

Ваш часовий пояс: GMT + 2 Години

Нова тема   Відповісти