Корона (Сезон 1) / The Crown (Season 1) (2016) AVC Ukr/Eng | Sub Ukr/Eng

Нові коментарі

Нова тема   Відповісти
Автор Повідомлення
НеЗупиняйПродакшн 
Відео Гуртом - озвучення
Відео Гуртом - озвучення


З нами з: 28.07.15
Востаннє: 22.10.17
Повідомлень: 428

2017-07-19 14:38  
_________________________________________________________________________________



Корона / The Crown (2016) AVC Ukr/Eng | Sub Ukr/Eng

Корона (Сезон 1) / The Crown (Season 1) (2016) AVC Ukr/Eng | Sub Ukr/Eng


Жанр: драма, біографія, історія
Країна: США, Велика Британія



Кінокомпанія: Netflix
Режисер: Стівен Делдрі
Актори: Клер Фой, Мет Сміт, Ванесса Кірбі, Мартін Бішоп, Ейлін Еткінс, Алекс Дженнінґс, Ліа Вільямс та інші

Сюжет:
Драматичний телесеріал, створений Пітером Морґаном для Netflix, який розповідає історію британської королівської сім'ї в середині XX століття.


Тривалість: 1 серія: ~52 хв. (цілком серій: 10)
Перелік серій
1. Волфетронське озеро
2. На розі Гайд-парку
3. Віндзор
4. Стихійне лихо
5. Дим і дзеркала
6. Вибухова суміш
7. Знання - це сила
8. Гордість і радість
9. Убивця
10. Ґлоріана
Якість:
Відео:
кодек:
розмір кадру: 1024 х 512
бітрейт: 2600 кб/c

Аудіо # 1:
озвучення: професійне багатоголосе закадрове
кодек: 5.1
бітрейт: 640 кб/с

Озвучено студією НеЗупиняйПродакшн


Аудіо # 2:
мова: англійська
переклад: оригінал
кодек: 5.1
бітрейт: 384 кб/с

Субтитри # 1:
мова: українська
тип: програмні (м'які)
формат: *.srt

Субтитри # 2:
мова: англійська
тип: програмні (м'які)
формат: *.srt
Скріншоти








Info

Video
ID : 1
Format : AVC
Format/Info : Advanced Video Codec
Format profile : [email protected]
Format settings, CABAC : Yes
Format settings, ReFrames : 4 frames
Codec ID : V_MPEG4/ISO/AVC
Duration : 56 min 10 s
Bit rate : 2 600 kb/s
Width : 1 024 pixels
Height : 512 pixels
Display aspect ratio : 2.000
Frame rate mode : Constant
Frame rate : 25.000 FPS
Color space : YUV
Chroma subsampling : 4:2:0
Bit depth : 8 bits
Scan type : Progressive
Bits/(Pixel*Frame) : 0.198
Stream size : 1.02 GiB (72%)
Writing library : core 148 r2744 b97ae06
Encoding settings : cabac=1 / ref=3 / deblock=1:-1:-1 / analyse=0x3:0x113 / me=hex / subme=7 / psy=1 / psy_rd=1.00:0.15 / mixed_ref=1 / me_range=16 / chroma_me=1 / trellis=1 / 8x8dct=1 / cqm=0 / deadzone=21,11 / fast_pskip=1 / chroma_qp_offset=-3 / threads=6 / lookahead_threads=1 / sliced_threads=0 / nr=0 / decimate=1 / interlaced=0 / bluray_compat=0 / constrained_intra=0 / bframes=3 / b_pyramid=2 / b_adapt=1 / b_bias=0 / direct=1 / weightb=1 / open_gop=0 / weightp=2 / keyint=250 / keyint_min=25 / scenecut=40 / intra_refresh=0 / rc_lookahead=40 / rc=2pass / mbtree=1 / bitrate=2600 / ratetol=1.0 / qcomp=0.60 / qpmin=0 / qpmax=69 / qpstep=4 / cplxblur=20.0 / qblur=0.5 / ip_ratio=1.40 / aq=1:1.00
Default : Yes
Forced : No

Audio #1
ID : 2
Format : AC-3
Format/Info : Audio Coding 3
Format settings, Endianness : Big
Codec ID : A_AC3
Duration : 56 min 10 s
Bit rate mode : Constant
Bit rate : 640 kb/s
Channel(s) : 6 channels
Channel positions : Front: L C R, Side: L R, LFE
Sampling rate : 48.0 kHz
Frame rate : 31.250 FPS (1536 spf)
Bit depth : 16 bits
Compression mode : Lossy
Stream size : 257 MiB (18%)
Title : Українська (НеЗупиняйПродакшн)
Language : Ukrainian
Service kind : Complete Main
Default : Yes
Forced : No

Audio #2
ID : 3
Format : AC-3
Format/Info : Audio Coding 3
Format settings, Endianness : Big
Codec ID : A_AC3
Duration : 56 min 10 s
Bit rate mode : Constant
Bit rate : 384 kb/s
Channel(s) : 6 channels
Channel positions : Front: L C R, Side: L R, LFE
Sampling rate : 48.0 kHz
Frame rate : 31.250 FPS (1536 spf)
Bit depth : 16 bits
Compression mode : Lossy
Stream size : 154 MiB (11%)
Title : English
Language : English
Service kind : Complete Main
Default : No
Forced : No

Text #1
ID : 4
Format : UTF-8
Codec ID : S_TEXT/UTF8
Codec ID/Info : UTF-8 Plain Text
Duration : 54 min 45 s
Bit rate : 70 b/s
Count of elements : 530
Stream size : 28.4 KiB (0%)
Title : Українська
Language : Ukrainian
Default : Yes
Forced : No

Text #2
ID : 5
Format : UTF-8
Codec ID : S_TEXT/UTF8
Codec ID/Info : UTF-8 Plain Text
Duration : 51 min 56 s
Bit rate : 46 b/s
Count of elements : 521
Stream size : 17.5 KiB (0%)
Title : eng-sub
Language : English
Default : No
Forced : No


Авторський реліз (завантажувати можна без реєстрації)
 Трекер:    Зареєстрований   

Завантажити / скачати серіал українською



відео для новачків



 Зареєстрований:   2017-07-19 17:34
 Розмір:   14.62 GB 
 Оцінка серіалу:   9.8/10 (Голосів: 20)
   
Tarasyk 
Відео Гуртом - фільмокрай
Відео Гуртом - фільмокрай


З нами з: 26.08.09
Востаннє: 22.10.17
Повідомлень: 6362

2017-07-19 20:48  
Один із найкращих серіалів минулого року, 2 золотих глобуси, 2 перемоги в акторській гільдії, найкращий серіал року за версією Американського інституту кіно, найдорожчий серіал за всю історію.

Дуже актуальний для сучасної України - адже про роль і значення особи в історії держави.
Серіал надзвичайно сильний і глибокий за змістом.
Ну і знятий надзвичайно красиво, мало який серіал чи навіть фільм зможе скласти конкуренцію!

don pedro 
Попереджень: 1
Попереджень: 1 


З нами з: 29.06.11
Востаннє: 22.10.17
Повідомлень: 10425

2017-07-20 00:51  
Просто чудово. Черчілль тут такий як і був - старий мудрий паскудник, одержимий своєю мсісією. А королева - просто мила дівчина, яка намагається гідно триматись під тягарем. Дуже радий, що свого часу доклався до озвучення.
igor911 
Відео Гуртом
Відео Гуртом


З нами з: 18.01.08
Востаннє: 22.10.17
Повідомлень: 7967

2017-07-20 10:30  
Технічні зауваження щодо релізу:
- бітрейт відео вищий, а параметри кодування гірші, ніж для 720р (2600 проти 2558, там crf=18, тобто оптимальний);
- бітрейт української доріжки в 640 кб/с завеликий для AVC, можна було зменшити до 448 кб/с;
- загальний розмір цього AVC релізу вийшов на 1,3 Гб більшим, ніж 720р з більшим кадром і чудовою якістю.

Victor_Scythian 
Свій


З нами з: 06.01.17
Востаннє: 22.10.17
Повідомлень: 72

2017-07-21 15:17  
Якісний серіал
kozachka1971 
Новенький


З нами з: 15.04.14
Востаннє: 17.10.17
Повідомлень: 20

2017-07-25 14:17  
Сумно. Постійно згадую В'ячеслава Максимовича Чорновола. Серіал вартий перегляду.
Tarasyk 
Відео Гуртом - фільмокрай
Відео Гуртом - фільмокрай


З нами з: 26.08.09
Востаннє: 22.10.17
Повідомлень: 6362

2017-08-12 07:53  

Ваш часовий пояс: GMT + 2 Години

Нова тема   Відповісти