Корона (Сезон 1) / The Crown (Season 1) (2016) 720p Ukr/Eng | Sub Ukr/Eng

Нові коментарі

Нова тема   Відповісти
Автор Повідомлення
НеЗупиняйПродакшн 
Відео Гуртом - озвучення
Відео Гуртом - озвучення


З нами з: 28.07.15
Востаннє: 19.08.17
Повідомлень: 337

2017-07-19 14:33  
_________________________________________________________________________________



Корона / The Crown (2016) 720p Ukr/Eng | Sub Ukr/Eng

Корона (Сезон 1) / The Crown (Season 1) (2016) 720p Ukr/Eng | Sub Ukr/Eng


Жанр: драма, біографія, історія
Країна: США, Велика Британія



Кінокомпанія: Netflix
Режисер: Стівен Делдрі
Актори: Клер Фой, Мет Сміт, Ванесса Кірбі, Мартін Бішоп, Ейлін Еткінс, Алекс Дженнінґс, Ліа Вільямс та інші

Сюжет:
Драматичний телесеріал, створений Пітером Морґаном для Netflix, який розповідає історію британської королівської сім'ї в середині XX століття.


Тривалість: 1 серія: ~52 хв. (цілком серій: 10)
Перелік серій
1. Волфетронське озеро
2. На розі Гайд-парку
3. Віндзор
4. Стихійне лихо
5. Дим і дзеркала
6. Вибухова суміш
7. Знання - це сила
8. Гордість і радість
9. Убивця
10. Ґлоріана
Якість: 720p
Відео:
кодек:
розмір кадру: 1280 х 640
бітрейт: 2 558 кб/c

Аудіо # 1:
озвучення: професійне багатоголосе закадрове
кодек: 5.1
бітрейт: 640 кб/с

Озвучено студією НеЗупиняйПродакшн


Аудіо # 2:
мова: англійська
переклад: оригінал
кодек: 5.1
бітрейт: 384 кб/с

Субтитри # 1:
мова: українська
тип: програмні (м'які)
формат: *.srt

Субтитри # 2:
мова: англійська
тип: програмні (м'які)
формат: *.srt
Скріншоти









Info

Video
ID : 1
Format : AVC
Format/Info : Advanced Video Codec
Format profile : [email protected]
Format settings, CABAC : Yes
Format settings, ReFrames : 9 frames
Codec ID : V_MPEG4/ISO/AVC
Duration : 56 min 10 s
Bit rate : 2 558 kb/s
Width : 1 280 pixels
Height : 640 pixels
Display aspect ratio : 2.000
Frame rate mode : Constant
Frame rate : 25.000 FPS
Color space : YUV
Chroma subsampling : 4:2:0
Bit depth : 8 bits
Scan type : Progressive
Bits/(Pixel*Frame) : 0.125
Stream size : 1.00 GiB (71%)
Title : The Crown 1x01 (2016) - Release kmarats for HDCLUB
Writing library : core 148 r2721+7 72d53ab / tmod 162ad1b X86_64
Encoding settings : cabac=1 / ref=9 / deblock=1:-3:-3 / analyse=0x3:0x113 / me=umh / subme=10 / psy=1 / fade_compensate=0.00 / psy_rd=1.05:0.15 / mixed_ref=1 / me_range=36 / chroma_me=1 / trellis=2 / 8x8dct=1 / cqm=0 / deadzone=21,11 / fast_pskip=0 / chroma_qp_offset=-3 / threads=12 / lookahead_threads=2 / sliced_threads=0 / nr=0 / decimate=0 / interlaced=0 / bluray_compat=0 / constrained_intra=0 / fgo=0 / bframes=9 / b_pyramid=2 / b_adapt=2 / b_bias=0 / direct=3 / weightb=1 / open_gop=0 / weightp=2 / keyint=250 / keyint_min=25 / scenecut=40 / intra_refresh=0 / rc=crf / mbtree=0 / crf=18.0000 / qcomp=0.70 / qpmin=0:0:0 / qpmax=69:69:69 / qpstep=4 / ip_ratio=1.40 / pb_ratio=1.30 / aq=3:0.75 / aq-sensitivity=10.00 / aq-factor=1.00:1.00:1.00 / aq2=0 / aq3=0
Language : English
Default : Yes
Forced : No

Audio #1
ID : 2
Format : AC-3
Format/Info : Audio Coding 3
Format settings, Endianness : Big
Codec ID : A_AC3
Duration : 56 min 10 s
Bit rate mode : Constant
Bit rate : 640 kb/s
Channel(s) : 6 channels
Channel positions : Front: L C R, Side: L R, LFE
Sampling rate : 48.0 kHz
Frame rate : 31.250 FPS (1536 spf)
Bit depth : 16 bits
Compression mode : Lossy
Stream size : 257 MiB (18%)
Title : Українська (НеЗупиняйПродакшн)
Language : Ukrainian
Service kind : Complete Main
Default : Yes
Forced : No

Audio #2
ID : 3
Format : AC-3
Format/Info : Audio Coding 3
Format settings, Endianness : Big
Codec ID : A_AC3
Duration : 56 min 10 s
Bit rate mode : Constant
Bit rate : 384 kb/s
Channel(s) : 6 channels
Channel positions : Front: L C R, Side: L R, LFE
Sampling rate : 48.0 kHz
Frame rate : 31.250 FPS (1536 spf)
Bit depth : 16 bits
Compression mode : Lossy
Stream size : 154 MiB (11%)
Title : English
Language : English
Service kind : Complete Main
Default : No
Forced : No

Text #1
ID : 4
Format : UTF-8
Codec ID : S_TEXT/UTF8
Codec ID/Info : UTF-8 Plain Text
Duration : 54 min 45 s
Bit rate : 70 b/s
Count of elements : 530
Stream size : 28.4 KiB (0%)
Title : Українська
Language : Ukrainian
Default : Yes
Forced : No

Text #2
ID : 5
Format : UTF-8
Codec ID : S_TEXT/UTF8
Codec ID/Info : UTF-8 Plain Text
Duration : 51 min 56 s
Bit rate : 46 b/s
Count of elements : 521
Stream size : 17.5 KiB (0%)
Title : eng-sub
Language : English
Default : No
Forced : No


Авторський реліз (завантажувати можна без реєстрації)
 Трекер:    Зареєстрований   

Завантажити / скачати серіал українською



відео для новачків



 Зареєстрований:   2017-07-19 17:35
 Розмір:   13.36 GB 
 Оцінка серіалу:   9.9/10 (Голосів: 11)
   
Влад Гук 
Новенький


З нами з: 06.07.13
Востаннє: 20.08.17
Повідомлень: 18

2017-07-20 00:24  
Величезне спасибі за реліз! Озвучка просто неперевершена, голоси підібрані дуже вдало)
НеЗупиняйПродакшн 
Відео Гуртом - озвучення
Відео Гуртом - озвучення


З нами з: 28.07.15
Востаннє: 19.08.17
Повідомлень: 337

2017-07-20 08:19  
Влад Гук написано:
Величезне спасибі за реліз! Озвучка просто неперевершена, голоси підібрані дуже вдало)

Дякуємо Happy

mrsdoubtfire 
Свій


З нами з: 22.10.15
Востаннє: 20.08.17
Повідомлень: 71

2017-08-10 18:48  
Тизер другого сезону (українські субтитри):
https://www.youtube.com/watch?v=GZ2G51JzJnw
-----
Прем'єра 8 грудня.

Ваш часовий пояс: GMT + 2 Години

Нова тема   Відповісти