Гра Престолів (Сезон 7, Серія 1) / Game of Thrones (Season 7, Episode 1) (2017) 720p Ukr/Eng

Нові коментарі

Нова тема   Відповісти
Автор Повідомлення
Anonymous 







2017-07-18 08:43  
Гра Престолів (Сезон 7, Серія 1) / Game of Thrones (Season 7, Episode 1) (2017) 720p Ukr/Eng




Жанр: пригодницький, драма, фентезі
Країна: США



Кінокомпанія: Home Box Office (HBO), Television 360, Grok! Studio
Режисер: Девід Беніофф / David Benioff, Ден Вайс / D.B. Weiss
Актори: Пітер Дінклейдж / Peter Dinklage, Ніколай Костер-Валдау / Nikolaj Coster-Waldau, Ліна Гіді / Lena Headey, Кіт Герінгтон / Kit Harington, Емілія Кларк / Emilia Clarke, Ліам Каннінгем / Liam Cunningham, Софі Тернер / Sophie Turner та інші

Сюжет:
В сьомому сезоні Серсея намагається правити Вестеросом, незважаючи на те, що спільників в них не залишилось. В Річкових Землях починається боротьба за Ріверран після смерті Волдера Фрея, а також продовжуються сюжетні лінії Бріенни Тарт, Сандора Клігана та «Братства Без Знамен». Теон та Яра Грейджої разом з Дейнеріс Таргарієн збираються знищити Еурона Грейджоя. Оленна Тирел, уклавши угоду з Елларією Сенд, Варісом та Дейнеріс Таргарієн, має наміри помститись Серсеї Ланістер, знищивши всю її родину. Джон Сноу готується до бою з Блукачами. Семвелл Тарлі в Цитаделі Староміста проходить навчання, аби стати мейстером. Після перемоги Дейнеріс над Синами Гарпії в Затоці Работоргівців Дааріо править Міерином, Тіріон Ланістер вирушає у Вестерос разом з Дейнеріс, Варісом, Теоном та Ярою Грейджоями, а Джорах Мормонт намагається вилікуватись від «сірої хвороби». Бран Старк та Міра Рід, дізнавшись про те, що Джон Сноу є сином Ліанни Старк та Рейєгара Таргарієна, вирушають на Південь.


Вікова категорія: 18+

Тривалість: 1 серія ~ 56:00 (цілком серій: 1 із 7)
Перелік серій
1. Драконів камінь / Dragostone
2. Народжена бурею / Stormborn
3. Справедливість королеви / The Queen's Justice
Якість: 720p
Відео:
кодек:
розмір кадру: 1280 х 720
бітрейт: 2249 кб/с

Аудіо # 1:
мова: українська
переклад: багатоголосий закадровий
кодек: 5.1
бітрейт: 640 Кбіт/с

Аудіо # 2:
мова: англійська
переклад: оригінал
кодек: E- 5.1
бітрейт: 640 Кбіт/с
Info
Код:
Complete name               : Game.of.Thrones.S07E01..Ukr.Eng.uateam.
Format                      :
Format version              : Version 4 / Version 2
File size                   : 1.52 GiB
Duration                    : 1 h 1 min
Overall bit rate mode       : Variable
Overall bit rate            : 3 531 kb/s
Movie name                  : Game.of.Thrones.S07E01..Ukr.Eng.uateam.tv
Encoded date                : UTC 2017-07-17 18:58:28
Writing application         : mkvmerge v9.9.0 ('Pick Up') 64bit
Writing library             : libebml v1.3.4 + libmatroska v1.4.5

Video
ID                          : 1
Format                      : AVC
Format/Info                 : Advanced Video Codec
Format profile              : [email protected]
Format settings, CABAC      : Yes
Format settings, RefFrames  : 5 frames
Codec ID                    : V_MPEG4/ISO/AVC
Duration                    : 1 h 1 min
Bit rate mode               : Variable
Bit rate                    : 2 249 kb/s
Maximum bit rate            : 4 500 kb/s
Width                       : 1 280 pixels
Height                      : 720 pixels
Display aspect ratio        : 16:9
Frame rate mode             : Constant
Frame rate                  : 23.976 (24000/1001) FPS
Color space                 : YUV
Chroma subsampling          : 4:2:0
Bit depth                   : 8 bits
Scan type                   : Progressive
Bits/(Pixel*Frame)          : 0.102
Stream size                 : 989 MiB (64%)
Language                    : English
Default                     : Yes
Forced                      : No
Color range                 : Limited
Color primaries             : BT.709
Transfer characteristics    : BT.709
Matrix coefficients         : BT.709

Audio #1
ID                          : 2
Format                      : AC-3
Format/Info                 : Audio Coding 3
Format settings, Endianness : Big
Codec ID                    : A_AC3
Duration                    : 1 h 1 min
Bit rate mode               : Constant
Bit rate                    : 640 kb/s
Channel(s)                  : 6 channels
Channel positions           : Front: L C R, Side: L R, LFE
Sampling rate               : 48.0 kHz
Frame rate                  : 31.250 FPS (1536 SPF)
Bit depth                   : 16 bits
Compression mode            : Lossy
Stream size                 : 281 MiB (18%)
Title                       : MVO Omikron Studio for UAteam.tv
Language                    : Ukrainian
Service kind                : Complete Main
Default                     : Yes
Forced                      : No

Audio #2
ID                          : 3
Format                      : E-AC-3
Format/Info                 : Enhanced Audio Coding 3
Format settings, Endianness : Big
Codec ID                    : A_EAC3
Duration                    : 1 h 1 min
Bit rate mode               : Constant
Bit rate                    : 640 kb/s
Channel(s)                  : 6 channels
Channel positions           : Front: L C R, Side: L R, LFE
Sampling rate               : 48.0 kHz
Frame rate                  : 187.500 FPS (256 SPF)
Compression mode            : Lossy
Delay relative to video     : 23 ms
Stream size                 : 281 MiB (18%)
Language                    : English
Service kind                : Complete Main
Default                     : No
Forced                      : No


Хочеш і надалі дивитись найкращі серіали українською? Підтримай


Джерело:



Авторський реліз (завантажувати можна без реєстрації)
 Трекер:    Зареєстрований   

Завантажити / скачати серіал українською



відео для новачків



 Зареєстрований:   2017-07-18 09:03
 Розмір:   1.52 GB 
 Оцінка серіалу:   9.7/10 (Голосів: 66)
   
Ua.bos_01 
VIP


З нами з: 22.06.15
Востаннє: 24.07.17
Повідомлень: 1391

2017-07-19 23:03  
Пілотний епізод нового, сьомого, сезону "Гри Престолів" доволі багатообіцяюча. Дуже хороший початок.
Іванко1 
Новенький


З нами з: 19.08.10
Востаннє: 23.07.17
Повідомлень: 14

2017-07-22 21:52  
Перепрошую... А коли продовження?
Anonymous 







2017-07-22 23:12  
Іванко1 написано:
А коли продовження?

В штатах завтра ввечері (в нас це вже буде понеділок), від UATeam в понеділок ввечері.

Ваш часовий пояс: GMT + 2 Години

Нова тема   Відповісти