Розумник Вілл Хантінг / Розумник Вілл Гантінґ / Good Will Hunting (1997) AVC Ukr/Eng | sub Ukr/Eng

Нові коментарі

Нова тема   Відповісти
Автор Повідомлення
Maters 
VIP


З нами з: 27.03.12
Востаннє: 20.09.17
Повідомлень: 1303

2017-07-17 21:53  
Розумник Вілл Хантінг / Розумник Вілл Гантінґ / Good Will Hunting (1997) AVC Ukr/Eng | sub Ukr/Eng

Розумник Вілл Хантінг / Розумник Вілл Гантінґ / Good Will Hunting (1997) AVC Ukr/Eng | sub Ukr/Eng


Жанр: драма
Країна: США



Кінокомпанія: Be Gentlemen Limited Partnership, Lawrence Bender Productions, Miramax Films
Режисер: Гас Ван Сент
Актори: Метт Деймон, Робін Вільямс, Бен Аффлек, Стеллан Скарсгард, Мінні Драйвер, Кейсі Аффлек, Коул Хаузер, Джон Майтон

Сюжет:
Вілл Хантінг — 20-річний хлопець з Бостона, який раз за разом вплутується в неприємні історії. Несподівано він відкриває в собі феноменальні математичні здібності. Коли поліція заарештовує його за чергову бійку, професор математики бере його під свою опіку, але за однієї умови: Вілл повинен пройті курс психотерапії. Сеанси «перевиховання», що почалися з недовіри, поступово переростають в дружбу між Віллом і його наставником.


Тривалість: 02:06:33
Якість:
Відео:
кодек:
розмір кадру: 1024 х 554
бітрейт: 2067 кб/с

Аудіо # 1:
мова: українська
переклад: багатоголосий закадровий
кодек: 2.0
бітрейт: 160 кб/с

Аудіо # 2:
мова: англійська
переклад: оригінал
кодек: 2.0
бітрейт: 160 кб/с

Субтитри:
мова: українська
тип: програмні (м'які)
формат: *.srt

Субтитри:
мова: англійська
тип: програмні (м'які)
формат: *.srt
Скріншоти





Info
General
Complete name : D:\Downloaded\Good Will Hunting (1997) AVC.mp4
Format : MPEG-4
Format profile : Base Media / Version 2
Codec ID : mp42
File size : 2.12 GiB
Duration : 2h 6mn
Overall bit rate mode : Variable
Overall bit rate : 2 398 Kbps
Encoded date : UTC 2017-07-15 03:15:25
Tagged date : UTC 2017-07-15 03:15:25
Writing application : HandBrake 1.0.7 2017040900

Video
ID : 1
Format : AVC
Format/Info : Advanced Video Codec
Format profile : [email protected]
Format settings, CABAC : Yes
Format settings, ReFrames : 5 frames
Codec ID : avc1
Codec ID/Info : Advanced Video Coding
Duration : 2h 6mn
Bit rate : 2 067 Kbps
Width : 1 024 pixels
Height : 554 pixels
Display aspect ratio : 16:9
Frame rate mode : Variable
Frame rate : 23.976 fps
Minimum frame rate : 23.974 fps
Maximum frame rate : 23.981 fps
Color space : YUV
Chroma subsampling : 4:2:0
Bit depth : 8 bits
Scan type : Progressive
Bits/(Pixel*Frame) : 0.152
Stream size : 1.83 GiB (86%)
Writing library : core 148 r2708 86b7198
Encoding settings : cabac=1 / ref=5 / deblock=1:-1:-1 / analyse=0x3:0x113 / me=umh / subme=8 / psy=1 / psy_rd=1.00:0.15 / mixed_ref=1 / me_range=16 / chroma_me=1 / trellis=1 / 8x8dct=1 / cqm=0 / deadzone=21,11 / fast_pskip=1 / chroma_qp_offset=-3 / threads=3 / lookahead_threads=1 / sliced_threads=0 / nr=0 / decimate=1 / interlaced=0 / bluray_compat=0 / constrained_intra=0 / bframes=3 / b_pyramid=2 / b_adapt=2 / b_bias=0 / direct=3 / weightb=1 / open_gop=0 / weightp=2 / keyint=240 / keyint_min=24 / scenecut=40 / intra_refresh=0 / rc_lookahead=50 / rc=2pass / mbtree=1 / bitrate=2067 / ratetol=1.0 / qcomp=0.60 / qpmin=0 / qpmax=69 / qpstep=4 / cplxblur=20.0 / qblur=0.5 / vbv_maxrate=62500 / vbv_bufsize=78125 / nal_hrd=none / filler=0 / ip_ratio=1.40 / aq=1:1.00
Encoded date : UTC 2017-07-15 03:15:25
Tagged date : UTC 2017-07-15 03:15:25
Color primaries : BT.709-5, BT.1361, IEC 61966-2-4, SMPTE RP177
Transfer characteristics : BT.709-5, BT.1361
Matrix coefficients : BT.709-5, BT.1361, IEC 61966-2-4 709, SMPTE RP177

Audio #1
ID : 2
Format :
Format/Info : Advanced Audio Codec
Format profile : LC
Codec ID : 40
Duration : 2h 6mn
Bit rate mode : Variable
Bit rate : 160 Kbps
Channel(s) : 2 channels
Channel positions : Front: L R
Sampling rate : 48.0 KHz
Compression mode : Lossy
Stream size : 145 MiB (7%)
Title : Stereo
Language : Ukrainian
Encoded date : UTC 2017-07-15 03:15:25
Tagged date : UTC 2017-07-15 03:15:25

Audio #2
ID : 3
Format :
Format/Info : Advanced Audio Codec
Format profile : LC
Codec ID : 40
Duration : 2h 6mn
Bit rate mode : Variable
Bit rate : 160 Kbps
Channel(s) : 2 channels
Channel positions : Front: L R
Sampling rate : 48.0 KHz
Compression mode : Lossy
Stream size : 145 MiB (7%)
Title : Stereo
Language : English
Encoded date : UTC 2017-07-15 03:15:25
Tagged date : UTC 2017-07-15 03:15:25

Text #1
ID : 4
Format : Timed text
Muxing mode : sbtl
Codec ID : tx3g
Duration : 2h 6mn
Bit rate mode : Variable
Bit rate : 109 bps
Stream size : 101 KiB (0%)
Language : Ukrainian
Encoded date : UTC 2017-07-15 03:15:25
Tagged date : UTC 2017-07-15 03:15:25

Text #2
ID : 5
Format : Timed text
Muxing mode : sbtl
Codec ID : tx3g
Duration : 2h 1mn
Bit rate mode : Variable
Bit rate : 91 bps
Stream size : 81.2 KiB (0%)
Language : English
Encoded date : UTC 2017-07-15 03:15:25
Tagged date : UTC 2017-07-15 03:15:25

Text #3
ID : 6
Format : Apple text
Codec ID : text
Duration : 2h 6mn
Bit rate mode : Variable
Bit rate : 1 bps
Stream size : 506 Bytes (0%)
Language : English
Encoded date : UTC 2017-07-15 03:15:25
Tagged date : UTC 2017-07-15 03:15:25
Джерело: &
Особиста оцінка: не дивився


Срібний реліз (на рейтинг впливає 50% завантаженого)
 Трекер:    Зареєстрований   

Завантажити / скачати фільм українською



відео для новачків



 Зареєстрований:   2017-07-17 21:53
 Розмір:   2.12 GB 
 Оцінка фільму:   9.3/10 (Голосів: 6)
   
mrsdoubtfire 
Свій


З нами з: 22.10.15
Востаннє: 21.09.17
Повідомлень: 94

2017-07-17 22:41  
Нечасто зустрічаються фільми, які можуть змінити життя. Для тих, хто ще тільки шукає себе, для тих, кому не вистачає часу на дрібниці, і нарешті для тих, хто хоче знати, як виглядав Метт Деймон двадцять років тому, цей фільм.
Ваш часовий пояс: GMT + 2 Години

Нова тема   Відповісти