Привид у броні / Ghost In The Shell (2017) Remux 1080p Ukr/Eng | Sub Ukr/Eng

Нові коментарі

Нова тема   Відповісти
Автор Повідомлення
IronBee 
Свій


З нами з: 08.02.10
Востаннє: 24.09.17
Повідомлень: 71

2017-07-17 15:14  
Привид у броні / Ghost In The Shell (2017) Remux 1080p Ukr/Eng | Sub Ukr/Eng

Привид у броні / Ghost In The Shell (2017) Remux 1080p Ukr/Eng | Sub Ukr/Eng


Жанр: бойовик, драма, фантастика
Країна: США, Індія, Китай, Японія, Гонконг, Нова Зеландія, Канада, Австралія



Кінокомпанія: Paramount Pictures, DreamWorks, Reliance Entertainment
Режисер: Руперт Сандерс
Актори: Скарлет Йоганссон, Майкл Пітт, Такеші Кітано, Пілу Асбек, Жюльєтт Бінош, Чін Ган, Крістофер Обі, Ріла Фукусіма, Ютака Ізумігара, Ласарус Ратуере

Сюжет:
У найближчому майбутньому Матоко Кусанагі на прізвисько Майор буде першою в своєму роді. Колись вона була врятована в небезпечній аварії і за допомогою кібер-технологій перетворена в ідеального солдата, щоб зупинити найнебезпечніших геніїв кримінального світу. Люди того часу починають замінювати кібернетичними аналогами все, що тільки можна. Навіть свій розум... Тоді тероризм досягає такого рівня, що хакери проникають в розум людей і контролюють його. Тільки Майор може зупинити це. Але одного разу вона розуміє, що їй весь час брехали – її життя не врятували, а вкрали. Майор хоче дізнатися всі деталі свого минулого, щоб покарати винних і запобігти подібному в майбутньому.


Тривалість: 01:46:56
Якість: Remux
Відео:
кодек:
розмір кадру: 1920 х 1080
бітрейт: 28 Мб/с

Аудіо # 1:
мова: українська [Itunes]
переклад: професійний дубльований
кодек: 2.0
бітрейт: 192 кб/с

Аудіо # 2:
мова: англійська
переклад: оригінал
кодек: Dolby Atmos 7.1
бітрейт: 4131 кб/с

Субтитри # 1-2:
мова: українська (форсовані, повні)
тип: програмні (м'які)
формат: *.srt

Субтитри # 3-4:
мова: англійська (повні, SDH-Colored)
тип: програмні (м'які)
формат: *.srt
Info
General
Unique ID : 197911835509621433841095549116970512913 (0x94E46EDB6CD6B63589890DC670C53211)
Complete name : E:\Films\Ghost in the Shell (2017) Remux 1080p [UKR_ENG] [Hurtom].
Format :
Format version : Version 4 / Version 2
File size : 24.2 GiB
Duration : 1 h 46 min
Overall bit rate mode : Variable
Overall bit rate : 32.4 Mb/s
Encoded date : UTC 2017-07-17 10:34:14
Writing application : mkvmerge v13.0.0 ('The Juggler') 64bit
Writing library : libebml v1.3.4 + libmatroska v1.4.5

Video
ID : 1
Format : AVC
Format/Info : Advanced Video Codec
Format profile : [email protected]
Format settings, CABAC : Yes
Format settings, ReFrames : 4 frames
Codec ID : V_MPEG4/ISO/AVC
Duration : 1 h 46 min
Bit rate mode : Variable
Bit rate : 28.0 Mb/s
Maximum bit rate : 30.0 Mb/s
Width : 1 920 pixels
Height : 1 080 pixels
Display aspect ratio : 16:9
Frame rate mode : Constant
Frame rate : 23.976 (24000/1001) FPS
Color space : YUV
Chroma subsampling : 4:2:0
Bit depth : 8 bits
Scan type : Progressive
Bits/(Pixel*Frame) : 0.564
Stream size : 20.9 GiB (86%)
Language : English
Default : Yes
Forced : No

Audio #1
ID : 2
Format : AC-3
Format/Info : Audio Coding 3
Format profile : Dolby Digital
Mode extension : CM (complete main)
Format settings, Endianness : Big
Codec ID : A_AC3
Duration : 1 h 46 min
Bit rate mode : Constant
Bit rate : 192 kb/s
Channel(s) : 2 channels
Channel positions : Front: L R
Sampling rate : 48.0 kHz
Frame rate : 31.250 FPS (1536 spf)
Bit depth : 16 bits
Compression mode : Lossy
Stream size : 147 MiB (1%)
Language : Ukrainian
Default : Yes
Forced : No

Audio #2
ID : 3
Format : Atmos / TrueHD
Codec ID : A_TRUEHD
Duration : 1 h 46 min
Bit rate mode : Variable
Bit rate : 4 131 kb/s
Maximum bit rate : 7 710 kb/s
Channel(s) : Object Based / 8 channels
Channel positions : Object Based / Front: L C R, Side: L R, Back: L R, LFE
Sampling rate : / 48.0 kHz
Frame rate : 1 200.000 FPS (40 spf)
Compression mode : Lossless
Stream size : 3.09 GiB (13%)
Title : Original
Language : English
Default : No
Forced : No

Text #1
ID : 4
Format : UTF-8
Codec ID : S_TEXT/UTF8
Codec ID/Info : UTF-8 Plain Text
Duration : 1 h 44 min
Bit rate : 4 b/s
Count of elements : 76
Stream size : 3.52 KiB (0%)
Language : Ukrainian
Default : Yes
Forced : No

Text #2
ID : 5
Format : UTF-8
Codec ID : S_TEXT/UTF8
Codec ID/Info : UTF-8 Plain Text
Duration : 1 h 44 min
Bit rate : 57 b/s
Count of elements : 971
Stream size : 44.1 KiB (0%)
Language : Ukrainian
Default : No
Forced : No

Text #3
ID : 6
Format : UTF-8
Codec ID : S_TEXT/UTF8
Codec ID/Info : UTF-8 Plain Text
Duration : 1 h 34 min
Bit rate : 35 b/s
Count of elements : 881
Stream size : 24.6 KiB (0%)
Title : Full
Language : English
Default : No
Forced : No

Text #4
ID : 7
Format : UTF-8
Codec ID : S_TEXT/UTF8
Codec ID/Info : UTF-8 Plain Text
Duration : 1 h 37 min
Bit rate : 39 b/s
Count of elements : 883
Stream size : 28.2 KiB (0%)
Title : SDH (Colored)
Language : English
Default : No
Forced : No

Menu
00:00:00.000 : en:00:00:00.000
00:08:09.322 : en:00:08:09.322
00:14:39.962 : en:00:14:39.962
00:21:26.494 : en:00:21:26.494
00:28:02.681 : en:00:28:02.681
00:34:13.218 : en:00:34:13.218
00:39:27.615 : en:00:39:27.615
00:43:57.802 : en:00:43:57.802
00:51:49.815 : en:00:51:49.815
00:55:19.066 : en:00:55:19.066
01:01:06.872 : en:01:01:06.872
01:07:49.732 : en:01:07:49.732
01:14:36.972 : en:01:14:36.972
01:20:31.744 : en:01:20:31.744
01:27:46.178 : en:01:27:46.178
01:33:41.407 : en:01:33:41.407
01:38:00.083 : en:01:38:00.083
Скріншоти





Джерело: &
Особиста оцінка: 10 - без зайвих вагань рекомендую всім!


Золотий реліз (завантажене не впливає на рейтинг)
 Трекер:    Зареєстрований   

Завантажити / скачати фільм українською



відео для новачків



 Зареєстрований:   2017-07-17 15:14
 Розмір:   24.23 GB 
 Оцінка фільму:   9.2/10 (Голосів: 19)
   
Jur4uk 
Новенький


З нами з: 10.12.14
Востаннє: 21.09.17
Повідомлень: 7

2017-07-23 21:36  
Был в кино ,фильм очень понравился,стимпанк,Скарли как обычно огонь баба))
igor911 
Відео Гуртом
Відео Гуртом


З нами з: 18.01.08
Востаннє: 25.09.17
Повідомлень: 7730

2017-07-23 23:54  
Jur4uk, в нас спілкуються українською:
Цитата:
2. Правила та обмеження форуму
Всім без винятку заборонено:
2.1 Спілкуватися іншою мовою, аніж літературною українською

Anubys 
VIP


З нами з: 09.11.09
Востаннє: 24.09.17
Повідомлень: 332

2017-07-28 10:30  
Цікаво чи варто очікувати 5.1.
igor911 
Відео Гуртом
Відео Гуртом


З нами з: 18.01.08
Востаннє: 25.09.17
Повідомлень: 7730

2017-07-28 10:58  
Anubys написано:
Цікаво чи варто очікувати 5.1.

так https://toloka.to/t78349-270#917375

Ваш часовий пояс: GMT + 2 Години

Нова тема   Відповісти