Привид у броні / Ghost In The Shell (2017) Remux 1080p Ukr/Eng | Sub Ukr/Eng

Нові коментарі

Нова тема   Відповісти
Автор Повідомлення
IronBee 
Поважний учасник


З нами з: 08.02.10
Востаннє: 17.07.18
Повідомлень: 186

2017-07-17 15:14  
Привид у броні / Ghost In The Shell (2017) Remux 1080p Ukr/Eng | Sub Ukr/Eng

Привид у броні / Ghost In The Shell (2017) Remux 1080p Ukr/Eng | Sub Ukr/Eng


Жанр: бойовик, драма, фантастика
Країна: США, Індія, Китай, Японія, Гонконг, Нова Зеландія, Канада, Австралія



Кінокомпанія: Paramount Pictures, DreamWorks, Reliance Entertainment
Режисер: Руперт Сандерс
Актори: Скарлет Йоганссон, Майкл Пітт, Такеші Кітано, Пілу Асбек, Жюльєтт Бінош, Чін Ган, Крістофер Обі, Ріла Фукусіма, Ютака Ізумігара, Ласарус Ратуере

Сюжет:
У найближчому майбутньому Матоко Кусанагі на прізвисько Майор буде першою в своєму роді. Колись вона була врятована в небезпечній аварії і за допомогою кібер-технологій перетворена в ідеального солдата, щоб зупинити найнебезпечніших геніїв кримінального світу. Люди того часу починають замінювати кібернетичними аналогами все, що тільки можна. Навіть свій розум... Тоді тероризм досягає такого рівня, що хакери проникають в розум людей і контролюють його. Тільки Майор може зупинити це. Але одного разу вона розуміє, що їй весь час брехали – її життя не врятували, а вкрали. Майор хоче дізнатися всі деталі свого минулого, щоб покарати винних і запобігти подібному в майбутньому.


Тривалість: 01:46:56
Якість: Remux
Відео:
кодек:
розмір кадру: 1920 х 1080
бітрейт: 28 Мб/с

Аудіо # 1:
мова: українська | DVD
переклад: професійний дубльований
кодек: 5.1
бітрейт: 448 кб/с

Аудіо # 2:
мова: англійська
переклад: оригінал
кодек: Dolby Atmos 7.1
бітрейт: 4131 кб/с

Субтитри # 1-2:
мова: українська (форсовані, повні)
тип: програмні (м'які)
формат: *.srt

Субтитри # 3-4:
мова: англійська (повні, SDH-Colored)
тип: програмні (м'які)
формат: *.srt
Info
General
Unique ID : 295063613501089827653205060256516867562 (0xDDFB2F53E8754A58E336864FED3105EA)
Complete name : E:\Films\Ghost in the Shell (2017) Remux 1080p [UKR_ENG] [Hurtom].
Format :
Format version : Version 4 / Version 2
File size : 24.4 GiB
Duration : 1 h 46 min
Overall bit rate mode : Variable
Overall bit rate : 32.7 Mb/s
Encoded date : UTC 2018-07-09 14:06:18
Writing application : v24.0.0 ('Beyond The Pale') 64-bit
Writing library : libebml v1.3.6 + v1.4.9

Video
ID : 1
Format : AVC
Format/Info : Advanced Video Codec
Format profile : [email protected]
Format settings : CABAC / 4 Ref Frames
Format settings, CABAC : Yes
Format settings, ReFrames : 4 frames
Codec ID : V_MPEG4/ISO/AVC
Duration : 1 h 46 min
Bit rate mode : Variable
Bit rate : 28.0 Mb/s
Maximum bit rate : 30.0 Mb/s
Width : 1 920 pixels
Height : 1 080 pixels
Display aspect ratio : 16:9
Frame rate mode : Constant
Frame rate : 23.976 (24000/1001) FPS
Color space : YUV
Chroma subsampling : 4:2:0
Bit depth : 8 bits
Scan type : Progressive
Bits/(Pixel*Frame) : 0.564
Stream size : 20.9 GiB (86%)
Language : English
Default : Yes
Forced : No

Audio #1
ID : 2
Format : AC-3
Format/Info : Audio Coding 3
Codec ID : A_AC3
Duration : 1 h 46 min
Bit rate mode : Constant
Bit rate : 448 kb/s
Channel(s) : 6 channels
Channel positions : Front: L C R, Side: L R, LFE
Sampling rate : 48.0 kHz
Frame rate : 31.250 FPS (1536 SPF)
Bit depth : 16 bits
Compression mode : Lossy
Stream size : 343 MiB (1%)
Title : професійний дубльований 5.1 448 кб/с DVD
Language : Ukrainian
Service kind : Complete Main
Default : Yes
Forced : No

Audio #2
ID : 3
Format : TrueHD
Format profile : TrueHD+Atmos / TrueHD
Codec ID : A_TRUEHD
Duration : 1 h 46 min
Bit rate mode : Variable
Bit rate : 4 131 kb/s
Maximum bit rate : 7 710 kb/s
Channel(s) : Object Based / 8 channels
Channel positions : Object Based / Front: L C R, Side: L R, Back: L R, LFE
Sampling rate : / 48.0 kHz
Frame rate : 1 200.000 FPS (40 SPF)
Compression mode : Lossless
Stream size : 3.09 GiB (13%)
Title : Original
Language : English
Default : No
Forced : No

Text #1
ID : 4
Format : UTF-8
Codec ID : S_TEXT/UTF8
Codec ID/Info : UTF-8 Plain Text
Duration : 1 h 44 min
Bit rate : 4 b/s
Count of elements : 76
Stream size : 3.52 KiB (0%)
Language : Ukrainian
Default : Yes
Forced : No

Text #2
ID : 5
Format : UTF-8
Codec ID : S_TEXT/UTF8
Codec ID/Info : UTF-8 Plain Text
Duration : 1 h 44 min
Bit rate : 57 b/s
Count of elements : 970
Stream size : 44.1 KiB (0%)
Language : Ukrainian
Default : No
Forced : No

Text #3
ID : 6
Format : UTF-8
Codec ID : S_TEXT/UTF8
Codec ID/Info : UTF-8 Plain Text
Duration : 1 h 34 min
Bit rate : 35 b/s
Count of elements : 881
Stream size : 24.6 KiB (0%)
Title : Full
Language : English
Default : No
Forced : No

Text #4
ID : 7
Format : UTF-8
Codec ID : S_TEXT/UTF8
Codec ID/Info : UTF-8 Plain Text
Duration : 1 h 37 min
Bit rate : 39 b/s
Count of elements : 883
Stream size : 28.2 KiB (0%)
Title : SDH (Colored)
Language : English
Default : No
Forced : No

Menu
00:00:00.000 : en:00:00:00.000
00:08:09.322 : en:00:08:09.322
00:14:39.962 : en:00:14:39.962
00:21:26.494 : en:00:21:26.494
00:28:02.681 : en:00:28:02.681
00:34:13.218 : en:00:34:13.218
00:39:27.615 : en:00:39:27.615
00:43:57.802 : en:00:43:57.802
00:51:49.815 : en:00:51:49.815
00:55:19.066 : en:00:55:19.066
01:01:06.872 : en:01:01:06.872
01:07:49.732 : en:01:07:49.732
01:14:36.972 : en:01:14:36.972
01:20:31.744 : en:01:20:31.744
01:27:46.178 : en:01:27:46.178
01:33:41.407 : en:01:33:41.407
01:38:00.083 : en:01:38:00.083
Скріншоти





Джерело: &
Особиста оцінка: 10 - без зайвих вагань рекомендую всім!


Золотий реліз (завантажене не впливає на рейтинг)
 Трекер:    Зареєстрований   

Завантажити / скачати фільм українською



відео для новачків



 Зареєстрований:   2018-07-09 18:05
 Розмір:   24.42 GB 
 Оцінка фільму:   9.2/10 (Голосів: 6)
   
Jur4uk 
Новенький


З нами з: 10.12.14
Востаннє: 16.07.18
Повідомлень: 9

2017-07-23 21:36  
Был в кино ,фильм очень понравился,стимпанк,Скарли как обычно огонь баба))
igor911 
Відео Гуртом
Відео Гуртом


З нами з: 18.01.08
Востаннє: 17.07.18
Повідомлень: 10518

2017-07-23 23:54  
Jur4uk, в нас спілкуються українською:
Цитата:
2. Правила та обмеження форуму
Всім без винятку заборонено:
2.1 Спілкуватися іншою мовою, аніж літературною українською

Anubys 
VIP


З нами з: 09.11.09
Востаннє: 17.07.18
Повідомлень: 359

2017-07-28 10:30  
Цікаво чи варто очікувати 5.1.
igor911 
Відео Гуртом
Відео Гуртом


З нами з: 18.01.08
Востаннє: 17.07.18
Повідомлень: 10518

2017-07-28 10:58  
Anubys написано:
Цікаво чи варто очікувати 5.1.

так https://toloka.to/t78349-270#917375

Uberwinder 
VIP


З нами з: 18.11.16
Востаннє: 17.07.18
Повідомлень: 263

2017-10-05 22:22  
Як на мене, то це непогано знятий, але усе ж таки посередній фільм.
Nemmezis 
Новенький


З нами з: 11.08.17
Востаннє: 15.07.18
Повідомлень: 19

2017-10-06 15:24  
Трішки перестарались, але в цілому непоганий фільм, подивитись один раз можна.
ВАВУНЯ 
Поважний учасник


З нами з: 30.06.15
Востаннє: 16.07.18
Повідомлень: 203

2017-10-08 14:51  
кращий звук так і не з'явився?! Sad (1)
Electroz 
Відео Гуртом - підтримка та поширення
Відео Гуртом - підтримка та поширення


З нами з: 18.09.14
Востаннє: 17.07.18
Повідомлень: 2822

2017-10-08 14:56  
ВАВУНЯ
На DVD присутній звук 5.1, але поки ніхто не придбав...

ВАВУНЯ 
Поважний учасник


З нами з: 30.06.15
Востаннє: 16.07.18
Повідомлень: 203

2017-12-25 16:00  
які справи із звуком 5.1? невже ніхто ще придбав DVD?! Sad (1)
woofen 
Новенький


З нами з: 19.03.14
Востаннє: 13.07.18
Повідомлень: 6

2018-01-11 19:34  
був на прем'єрі. найгірший фільм. 1/10. не сподобалось все. буз змістовного сюжету. жахіття. зовсім не рекомендую
romanforyou 
Новенький


З нами з: 12.04.09
Востаннє: 06.07.18
Повідомлень: 14

2018-04-03 21:19  
Додайте 5.1, а то 24Гб качати із 2.0 нема бажання!
IronBee 
Поважний учасник


З нами з: 08.02.10
Востаннє: 17.07.18
Повідомлень: 186

2018-07-09 18:06  
торент оновлено :замінив доріжку на більш якісну
Ваш часовий пояс: GMT + 2 Години

Нова тема   Відповісти