Щоденник Роуз / The Secret Scripture (2016) 720p Ukr/Eng

Нові коментарі

Нова тема   Відповісти
Автор Повідомлення
Anonymous 







2017-07-16 23:15  
Щоденник Роуз / The Secret Scripture (2016) 720p Ukr/Eng

Щоденник Роуз / The Secret Scripture (2016) 720p Ukr/Eng


Жанр: драма
Країна: Ірландія



Кінокомпанія: Irish Film Board, Apollo Media, Ferndale Films
Режисер: Джим Шерідан / Jim Sheridan
Актори: Руні Мара / Rooney Mara, Тео Джеймс / Theo James, Ейдан Тернер / Aidan Turner, Ерік Бана / Eric Bana, Джек Рейнор / Jack Reynor, Ванесса Редгрейв / Vanessa Redgrave, С'юзен Лінч / Susan Lynch, Полін Маклін / Pauline McLynn, Том Вон-Лолор / Tom Vaughan-Lawlor, Омар Шаріф мол. / Omar Sharif Jr. та інші

Сюжет:
Фільм розповідає про пацієнтку психіатричної клініки - Розанну Макналті (Руні Мара, Ванесса Редгрейв), яка перебувала в неволі так довго, що всі вже забули, що саме її туди привело. Коли в клініці з'явився новий лікар, Вільям Грін (Ерік Бана), доля загадкової пацієнтки викликала його особливий інтерес. Одного разу Грін знайшов захований щоденник Розанни. Протягом декількох десятиліть вона записувала свої спогади. У цих мемуарах – розповідь про дивовижне життя, пристрасне і трагічне кохання, а також про причину госпіталізації.
Офіційний український трейлер:


Вікова категорія: 14+

Тривалість: 01:43:46
Якість: 720p
Відео:
кодек:
розмір кадру: [email protected] [анаморфний піксель]
бітрейт: 4039 кб/с

Аудіо # 1:
мова: українська
переклад: багатоголосий закадровий
кодек: 2.0
бітрейт: 192 кб/с

Аудіо # 2:
мова: англійська
переклад: оригінал
кодек: 5.1
бітрейт: 384 кб/с

Збережено оригінальні розділи
Info
Код:
Complete name               : The Secret Scripture (2016) [Ukr,Eng] 720p [Hurtom].
Format                      :
Format version              : Version 4 / Version 2
File size                   : 3.35 GiB
Duration                    : 1 h 43 min
Overall bit rate            : 4 617 kb/s
Movie name                  : Щоденник Роуз / The Secret Scripture (2016) [Ukr,Eng] 720p [Hurtom]
Released date               : 2016
Cover                       : Yes
Comment                     : http://www.imdb.com/title/tt3344694/
Attachments                 : cover.jpg
ARTIST                      : Руні Мара / Rooney Mara, Тео Джеймс / Theo James, Ейдан Тернер / Aidan Turner, Ерік Бана / Eric Bana, Джек Рейнор / Jack Reynor, Ванесса Редгрейв / Vanessa Redgrave, С'юзен Лінч / Susan Lynch, Полін Маклін / Pauline McLynn, Том Вон-Лолор / Tom Vaughan-Lawlor, Омар Шаріф мол. / Omar Sharif Jr. та інші
DIRECTOR                    : Джим Шерідан / Jim Sheridan
GENRE                       : драма
SYNOPSIS                    : Фільм розповідає про пацієнтку психіатричної клініки - Розанну Макналті (Ванесса Редгрейв), яка перебувала в неволі так довго, що всі вже забули, що саме її туди привело. Коли в клініці з'явився новий лікар, Вільям Грін (Ерік Бана), доля загадкової пацієнтки викликала його особливий інтерес. Одного разу Грін знайшов захований щоденник Розанни. Протягом декількох десятиліть вона записувала свої спогади. У цих мемуарах – розповідь про дивовижне життя, пристрасне і трагічне кохання, а також про причину госпіталізації...
Url                         : https://toloka.to/t82967

Video
ID                          : 1
Format                      : AVC
Format/Info                 : Advanced Video Codec
Format profile              : [email protected]
Format settings, CABAC      : No
Format settings, RefFrames  : 2 frames
Codec ID                    : V_MPEG4/ISO/AVC
Duration                    : 1 h 43 min
Bit rate                    : 4 039 kb/s
Width                       : 960 pixels
Height                      : 534 pixels
Display aspect ratio        : 2.40:1
Frame rate mode             : Constant
Frame rate                  : 25.000 FPS
Color space                 : YUV
Chroma subsampling          : 4:2:0
Bit depth                   : 8 bits
Scan type                   : Progressive
Bits/(Pixel*Frame)          : 0.315
Stream size                 : 2.93 GiB (87%)
Title                       : Щоденник Роуз / The Secret Scripture (2016) 720p
Language                    : English
Default                     : Yes
Forced                      : No
Color range                 : Limited
Color primaries             : BT.709
Transfer characteristics    : BT.709
Matrix coefficients         : BT.709

Audio #1
ID                          : 2
Format                      : AC-3
Format/Info                 : Audio Coding 3
Format settings, Endianness : Big
Codec ID                    : A_AC3
Duration                    : 1 h 43 min
Bit rate mode               : Constant
Bit rate                    : 192 kb/s
Channel(s)                  : 2 channels
Channel positions           : Front: L R
Sampling rate               : 48.0 kHz
Frame rate                  : 31.250 FPS (1536 SPF)
Bit depth                   : 16 bits
Compression mode            : Lossy
Stream size                 : 142 MiB (4%)
Title                       : MVO [Megogo], 2.0 192 Kbps [Hurtom-AngryBirdsUA]
Language                    : Ukrainian
Service kind                : Complete Main
Default                     : Yes
Forced                      : Yes

Audio #2
ID                          : 3
Format                      : AC-3
Format/Info                 : Audio Coding 3
Format settings, Endianness : Big
Codec ID                    : A_AC3
Duration                    : 1 h 43 min
Bit rate mode               : Constant
Bit rate                    : 384 kb/s
Channel(s)                  : 6 channels
Channel positions           : Front: L C R, Side: L R, LFE
Sampling rate               : 48.0 kHz
Frame rate                  : 31.250 FPS (1536 SPF)
Bit depth                   : 16 bits
Compression mode            : Lossy
Stream size                 : 285 MiB (8%)
Title                       : Original, 5.1 384 Kbps
Language                    : English
Service kind                : Complete Main
Default                     : No
Forced                      : No

Menu
00:00:00.000                : en:1
00:08:00.800                : en:2
00:16:03.640                : en:3
00:23:24.000                : en:4
00:32:07.799                : en:5
00:40:28.719                : en:6
00:47:42.559                : en:7
00:56:45.079                : en:8
01:04:04.479                : en:9
01:11:58.839                : en:10
01:21:39.079                : en:11
01:28:51.879                : en:12
01:35:13.199                : en:13


Підтримати купівлю інших фільмів можна тут.


Джерело: &
Подяка за українську доріжку AngryBirdsUA.


 Трекер:    Зареєстрований   

Завантажити / скачати фільм українською



відео для новачків



 Зареєстрований:   2017-07-17 00:30
 Розмір:   3.35 GB 
 Оцінка фільму:   5.9/10 (Голосів: 23)
   
Інші релізи
   Щоденник Роуз / The Secret Scripture (2016) AngryBirdsUA  37 / 0   1.45 GB   2017-07-16 20:34 
casper101 
Поважний учасник


З нами з: 03.12.09
Востаннє: 21.11.17
Повідомлень: 232

2017-07-17 15:22  
не подобається назва фільму.
Sacramental 
Новенький


З нами з: 24.11.16
Востаннє: 21.11.17
Повідомлень: 7

2017-07-20 13:39  
Дуже зворушливий фільм!!! Cry (2)
0mage0 
Свій


З нами з: 06.10.15
Востаннє: 21.11.17
Повідомлень: 123

2017-08-17 09:34  
Сумний фільм...
Tania-Iris 
Новенький


З нами з: 15.02.15
Востаннє: 21.11.17
Повідомлень: 24

2017-08-26 23:49  
Хороший фільм. Але дуже сумний. І кінець фільму трохи передбачуваний.
А ще я не зовсім зрозуміла чому Майкла хотіли вбити. Бо він ірландець і пішов до британської армії?

Ваш часовий пояс: GMT + 2 Години

Нова тема   Відповісти