Щоденник Роуз / The Secret Scripture (2016) 720p Ukr/Eng | Sub Eng

Нові коментарі

Нова тема   Відповісти
Автор Повідомлення
Anonymous 







2017-07-17 00:15  
Щоденник Роуз / The Secret Scripture (2016) 720p Ukr/Eng | Sub Eng

Щоденник Роуз / The Secret Scripture (2016) 720p Ukr/Eng | Sub Eng


Жанр: драма
Країна: Ірландія



Кінокомпанія: Irish Film Board, Apollo Media, Ferndale Films
Режисер: Джим Шерідан / Jim Sheridan
Актори: Руні Мара / Rooney Mara, Тео Джеймс / Theo James, Ейдан Тернер / Aidan Turner, Ерік Бана / Eric Bana, Джек Рейнор / Jack Reynor, Ванесса Редгрейв / Vanessa Redgrave, С'юзен Лінч / Susan Lynch, Полін Маклін / Pauline McLynn, Том Вон-Лолор / Tom Vaughan-Lawlor, Омар Шаріф мол. / Omar Sharif Jr. та інші

Сюжет:
Фільм розповідає про пацієнтку психіатричної клініки - Розанну Макналті (Руні Мара, Ванесса Редгрейв), яка перебувала в неволі так довго, що всі вже забули, що саме її туди привело. Коли в клініці з'явився новий лікар, Вільям Грін (Ерік Бана), доля загадкової пацієнтки викликала його особливий інтерес. Одного разу Грін знайшов захований щоденник Розанни. Протягом декількох десятиліть вона записувала свої спогади. У цих мемуарах – розповідь про дивовижне життя, пристрасне і трагічне кохання, а також про причину госпіталізації.
Офіційний український трейлер:


Вікова категорія: 14+

Тривалість: 01:48:56
Якість: 720p
Відео:
кодек:
розмір кадру: 1280x530
бітрейт: 3999 кб/с

Аудіо # 1:
мова: українська
переклад: багатоголосий закадровий
кодек: 2.0
бітрейт: 192 кб/с

Аудіо # 2:
мова: англійська
переклад: оригінал
кодек: 5.1
бітрейт: 640 кб/с

Субтитри # 1-3:
мова: англійська (повні, SDH, SDH кольорові)
тип: програмні (м'які)
формат: *.srt

Збережено оригінальні розділи, як на Blu-ray
Info та log
Код:
Complete name               : The Secret Scripture (2016) [Ukr,Eng sub.Eng] 720p [Hurtom].
Format                      :
Format version              : Version 4 / Version 2
File size                   : 3.68 GiB
Duration                    : 1 h 48 min
Overall bit rate            : 4 833 kb/s
Movie name                  : Щоденник Роуз / The Secret Scripture (2016) [Ukr,Eng sub.Eng] 720p [Hurtom]
Released date               : 2016
Encoded date                : UTC 2018-02-28 20:15:02
Writing application         : v21.0.0 ('Tardigrades Will Inherit The Earth') 64-bit
Writing library             : libebml v1.3.5 + v1.4.8
Cover                       : Yes
Comment                     : http://www.imdb.com/title/tt3344694/
Attachments                 : cover.jpg
ARTIST                      : Руні Мара / Rooney Mara, Тео Джеймс / Theo James, Ейдан Тернер / Aidan Turner, Ерік Бана / Eric Bana, Джек Рейнор / Jack Reynor, Ванесса Редгрейв / Vanessa Redgrave, С'юзен Лінч / Susan Lynch, Полін Маклін / Pauline McLynn, Том Вон-Лолор / Tom Vaughan-Lawlor, Омар Шаріф мол. / Omar Sharif Jr. та інші
DIRECTOR                    : Джим Шерідан / Jim Sheridan
GENRE                       : драма
SYNOPSIS                    : Фільм розповідає про пацієнтку психіатричної клініки - Розанну Макналті (Ванесса Редгрейв), яка перебувала в неволі так довго, що всі вже забули, що саме її туди привело. Коли в клініці з'явився новий лікар, Вільям Грін (Ерік Бана), доля загадкової пацієнтки викликала його особливий інтерес. Одного разу Грін знайшов захований щоденник Розанни. Протягом декількох десятиліть вона записувала свої спогади. У цих мемуарах – розповідь про дивовижне життя, пристрасне і трагічне кохання, а також про причину госпіталізації...
Url                         : https://toloka.to/t82967

Video
ID                          : 1
Format                      : AVC
Format/Info                 : Advanced Video Codec
Format profile              : [email protected]
Format settings             : CABAC / 12 Ref Frames
Format settings, CABAC      : Yes
Format settings, ReFrames   : 12 frames
Codec ID                    : V_MPEG4/ISO/AVC
Duration                    : 1 h 48 min
Bit rate                    : 3 999 kb/s
Width                       : 1 280 pixels
Height                      : 530 pixels
Display aspect ratio        : 2.40:1
Frame rate mode             : Constant
Frame rate                  : 24.000 FPS
Color space                 : YUV
Chroma subsampling          : 4:2:0
Bit depth                   : 8 bits
Scan type                   : Progressive
Bits/(Pixel*Frame)          : 0.246
Stream size                 : 3.04 GiB (83%)
Title                       : Щоденник Роуз / The Secret Scripture (2016) 720p
Writing library             : core 152 r2851 ba24899
Encoding settings           : cabac=1 / ref=12 / deblock=1:-2:-2 / analyse=0x3:0x133 / me=umh / subme=11 / psy=1 / psy_rd=1.00:0.00 / mixed_ref=1 / me_range=32 / chroma_me=0 / trellis=2 / 8x8dct=1 / cqm=0 / deadzone=21,11 / fast_pskip=0 / chroma_qp_offset=-2 / threads=12 / lookahead_threads=3 / sliced_threads=0 / nr=0 / decimate=0 / interlaced=0 / bluray_compat=0 / constrained_intra=0 / bframes=13 / b_pyramid=2 / b_adapt=2 / b_bias=0 / direct=3 / weightb=1 / open_gop=1 / weightp=2 / keyint=240 / keyint_min=23 / scenecut=40 / intra_refresh=0 / rc_lookahead=40 / rc=2pass / mbtree=0 / bitrate=3999 / ratetol=1.0 / qcomp=0.70 / qpmin=0 / qpmax=69 / qpstep=4 / cplxblur=20.0 / qblur=0.5 / vbv_maxrate=50000 / vbv_bufsize=62500 / nal_hrd=none / filler=0 / ip_ratio=1.30 / pb_ratio=1.20 / aq=3:0.80
Language                    : English
Default                     : Yes
Forced                      : No
Color range                 : Limited
Color primaries             : BT.709
Transfer characteristics    : BT.709
Matrix coefficients         : BT.709

Audio #1
ID                          : 2
Format                      : AC-3
Format/Info                 : Audio Coding 3
Codec ID                    : A_AC3
Duration                    : 1 h 48 min
Bit rate mode               : Constant
Bit rate                    : 192 kb/s
Channel(s)                  : 2 channels
Channel positions           : Front: L R
Sampling rate               : 48.0 kHz
Frame rate                  : 31.250 FPS (1536 SPF)
Bit depth                   : 16 bits
Compression mode            : Lossy
Stream size                 : 150 MiB (4%)
Title                       : MVO [Megogo], 2.0 192 Kbps [Hurtom-AngryBirdsUA]
Language                    : Ukrainian
Service kind                : Complete Main
Default                     : Yes
Forced                      : Yes

Audio #2
ID                          : 3
Format                      : AC-3
Format/Info                 : Audio Coding 3
Codec ID                    : A_AC3
Duration                    : 1 h 48 min
Bit rate mode               : Constant
Bit rate                    : 640 kb/s
Channel(s)                  : 6 channels
Channel positions           : Front: L C R, Side: L R, LFE
Sampling rate               : 48.0 kHz
Frame rate                  : 31.250 FPS (1536 SPF)
Bit depth                   : 16 bits
Compression mode            : Lossy
Stream size                 : 499 MiB (13%)
Title                       : Original, 5.1 640 Kbps
Language                    : English
Service kind                : Complete Main
Default                     : No
Forced                      : No

Text #1
ID                          : 4
Format                      : UTF-8
Codec ID                    : S_TEXT/UTF8
Codec ID/Info               : UTF-8 Plain Text
Duration                    : 1 h 47 min
Bit rate                    : 33 b/s
Count of elements           : 1011
Stream size                 : 26.5 KiB (0%)
Title                       : Eng Full
Language                    : English
Default                     : No
Forced                      : No

Text #2
ID                          : 5
Format                      : UTF-8
Codec ID                    : S_TEXT/UTF8
Codec ID/Info               : UTF-8 Plain Text
Duration                    : 1 h 47 min
Bit rate                    : 36 b/s
Count of elements           : 1091
Stream size                 : 28.4 KiB (0%)
Title                       : Eng SDH
Language                    : English
Default                     : No
Forced                      : No

Text #3
ID                          : 6
Format                      : UTF-8
Codec ID                    : S_TEXT/UTF8
Codec ID/Info               : UTF-8 Plain Text
Duration                    : 1 h 47 min
Bit rate                    : 58 b/s
Count of elements           : 1106
Stream size                 : 45.8 KiB (0%)
Title                       : Eng SDH Colored
Language                    : English
Default                     : No
Forced                      : No

Menu
00:00:00.000                : en:Chapter 1
00:08:44.415                : en:Chapter 2
00:17:52.833                : en:Chapter 3
00:26:52.833                : en:Chapter 4
00:36:57.833                : en:Chapter 5
00:45:14.833                : en:Chapter 6
00:54:19.208                : en:Chapter 7
01:03:03.833                : en:Chapter 8
01:13:09.416                : en:Chapter 9
01:23:27.625                : en:Chapter 10
01:29:01.832                : en:Chapter 11
01:39:34.833                : en:Chapter 12

Код:
[info]: frame I:1152 Avg QP:12.62 size: 99116
[info]: frame P:34378 Avg QP:14.81 size: 38383
[info]: frame B:121341 Avg QP:15.57 size: 15107
[info]: consecutive B-frames: 2.1% 3.2% 9.1% 19.3% 16.7% 37.3% 5.7% 2.0% 1.3% 0.9% 0.9% 0.6% 0.5% 0.4%


Підтримати купівлю інших фільмів можна тут.


Джерело: &
Подяка за українську доріжку AngryBirdsUA.

[28.02.2018] Реліз оновлено - замінено відеоряд з на


 Трекер:    Зареєстрований   

Завантажити / скачати фільм українською



відео для новачків



 Зареєстрований:   2018-02-28 23:35
 Розмір:   3.68 GB 
 Оцінка фільму:   6.8/10 (Голосів: 34)
   
Інші релізи
   Щоденник Роуз / The Secret Scripture (2016) AngryBirdsUA  19 / 0   1.45 GB   2017-07-16 21:34 
casper101 
VIP


З нами з: 03.12.09
Востаннє: 21.06.18
Повідомлень: 313

2017-07-17 16:22  
не подобається назва фільму.
Sacramental 
Частий відвідувач


З нами з: 24.11.16
Востаннє: 20.06.18
Повідомлень: 42

2017-07-20 14:39  
Дуже зворушливий фільм!!! Cry (2)
0mage0 
VIP


З нами з: 06.10.15
Востаннє: 22.06.18
Повідомлень: 279

2017-08-17 10:34  
Сумний фільм...
Tania-Iris 
Частий відвідувач


З нами з: 15.02.15
Востаннє: 17.06.18
Повідомлень: 29

2017-08-27 00:49  
Хороший фільм. Але дуже сумний. І кінець фільму трохи передбачуваний.
А ще я не зовсім зрозуміла чому Майкла хотіли вбити. Бо він ірландець і пішов до британської армії?

Magda-Lena 
Частий відвідувач


З нами з: 19.01.11
Востаннє: 20.06.18
Повідомлень: 43

2017-12-07 17:53  
Вибачте, можливо, варто замінити відеоряд з на BD !?
Anonymous 







2017-12-07 18:10  
Magda-Lena, оновлю пізніше, поставив в закладки.
IgorekSh 
Частий відвідувач


З нами з: 17.09.11
Востаннє: 20.06.18
Повідомлень: 37

2018-02-28 17:32  
В мережі вже є 1080p. Чому його тут нема?
Anonymous 







2018-02-28 17:56  
IgorekSh написано:
Чому його тут нема?

бо ти не виклав.

Anonymous 







2018-02-28 23:36  
Реліз оновлено - замінено відеоряд з на 
lightinsight 
Свій


З нами з: 07.04.14
Востаннє: 22.06.18
Повідомлень: 81

2018-03-01 01:03  
Чому назву перекладено саме так?!
Anonymous 







2018-03-01 01:38  
lightinsight написано:
Чому назву перекладено саме так?!

Це треба запитувати у прокатника - SVOE KINO

Sacramental 
Частий відвідувач


З нами з: 24.11.16
Востаннє: 20.06.18
Повідомлень: 42

2018-03-01 19:13  
Дуже сильний фільм!!! 10\10!!!
zanevsky 
Свій


З нами з: 14.03.09
Востаннє: 22.06.18
Повідомлень: 93

2018-03-02 21:37  
Tania-Iris
саме так…

Ваш часовий пояс: GMT + 2 Години

Нова тема   Відповісти