Формула 1. Сезон 2017. Етап 10. Гран-Прі Великої Британії. Перегони (16.07.2017) 1080p

Нові коментарі

Нова тема   Відповісти
Автор Повідомлення
sergiyko.5 
Попереджень: 1
Попереджень: 1 


З нами з: 25.02.16
Востаннє: 19.11.17
Повідомлень: 1195

2017-07-16 16:23  
Формула 1. Сезон 2017. Етап 10. Гран-Прі Великої Британії. Перегони (16.07.2017) 1080p

Формула 1. Сезон 2017. Етап 10. Гран-Прі Великої Британії. Перегони (16.07.2017) 1080p

Вид спорту: Перегони Формула 1
Джерело: F1UA

Коротенький опис:
16 липня 2017 року відбулись перегони десятого етапу Формули 1 Гран-Прі Великої Британії.

Тривалість: 01:47:21
Якість:

Відео: кодек: розмір кадру: 1920 х 1080 бітрейт: 3500 кб/с
Аудіо: мова: українська, коментар: Максим Подзігун кодек:, 2.0 бітрейт: 160 кб/с
Про файл:
General
Complete name : D:\Torrents\SPORT\F1.2017.Race.\F1.2017.10.Great.Britain.Race..1080p.Ukr.mp4
Format : MPEG-4
Format profile : Base Media
Codec ID : isom (isom/iso2/avc1/mp41)
File size : 2.75 GiB
Duration : 1 h 47 min
Overall bit rate : 3 669 kb/s
Writing application : Lavf57.66.102

Video
ID : 1
Format : AVC
Format/Info : Advanced Video Codec
Format profile : [email protected]
Format settings, CABAC : Yes
Format settings, RefFrames : 4 frames
Codec ID : avc1
Codec ID/Info : Advanced Video Coding
Duration : 1 h 47 min
Bit rate : 3 500 kb/s
Width : 1 920 pixels
Height : 1 080 pixels
Display aspect ratio : 16:9
Frame rate mode : Constant
Frame rate : 30.000 FPS
Color space : YUV
Chroma subsampling : 4:2:0
Bit depth : 8 bits
Scan type : Progressive
Bits/(Pixel*Frame) : 0.056
Stream size : 2.62 GiB (95%)
Writing library : core 148 r2762 90a61ec
Encoding settings : cabac=1 / ref=1 / deblock=1:0:0 / analyse=0x3:0x113 / me=hex / subme=2 / psy=1 / psy_rd=1.00:0.00 / mixed_ref=0 / me_range=16 / chroma_me=1 / trellis=0 / 8x8dct=1 / cqm=0 / deadzone=21,11 / fast_pskip=1 / chroma_qp_offset=0 / threads=12 / lookahead_threads=4 / sliced_threads=0 / nr=0 / decimate=1 / interlaced=0 / bluray_compat=0 / constrained_intra=0 / bframes=3 / b_pyramid=2 / b_adapt=1 / b_bias=0 / direct=1 / weightb=1 / open_gop=0 / weightp=1 / keyint=250 / keyint_min=25 / scenecut=40 / intra_refresh=0 / rc_lookahead=10 / rc=cbr / mbtree=1 / bitrate=3500 / ratetol=1.0 / qcomp=0.60 / qpmin=0 / qpmax=69 / qpstep=4 / vbv_maxrate=3500 / vbv_bufsize=3500 / nal_hrd=none / filler=1 / ip_ratio=1.40 / aq=1:1.00

Audio
ID : 2
Format :
Format/Info : Advanced Audio Codec
Format profile : LC
Codec ID : 40
Duration : 1 h 47 min
Bit rate mode : Constant
Bit rate : 160 kb/s
Channel(s) : 2 channels
Channel positions : Front: L R
Sampling rate : 44.1 kHz
Frame rate : 43.066 FPS (1024 SPF)
Compression mode : Lossy
Stream size : 123 MiB (4%)
Title : simple_aac
Default : Yes
Alternate group : 1
Скріншоти:


 Трекер:    Зареєстрований   

Завантажити / скачати торрент



відео для новачків



 Зареєстрований:   2017-07-16 16:23
 Розмір:   2.75 GB 
 Оцінка:   10/10 (Голосів: 8)
   
Ваш часовий пояс: GMT + 2 Години

Нова тема   Відповісти