П'ятий елемент (Le cinquième élément) / The Fifth Element (1997) 1080p [Open Matte] 3xUkr/Eng | Sub Eng

Нові коментарі

Нова тема   Відповісти
Автор Повідомлення
Anonymous 







2017-07-15 17:14  
П'ятий елемент / Le cinquième élément / The Fifth Element (1997) 1080p [Open Matte] 3xUkr/Eng | Sub Eng

П'ятий елемент (Le cinquième élément) / The Fifth Element (1997) 1080p [Open Matte] 3xUkr/Eng | Sub Eng


Жанр: пригодницький, екшн, сай-фай
Країна: Франція



Кінокомпанія: Gaumont
Режисер: Люк Бессон
Актори: Брюс Вілліс, Ґарі Олдман, Єн Гольм, Міла Йовович, Кріс Такер, Люк Перрі.

Сюжет:
Кожні 5000 років між паралельними вимірами відкриваються ворота, і сили зла та хаосу прагнуть порушити існуючу гармонію. І кожні 5000 років нашій планеті потрібен герой, який ризикне стати на заваді цього зла. У ХХIII столітті настала "червона" дата всесвітнього календаря і нью-йоркському таксисту Корбену Даласу випала зовсім не радісна місія - врятувати світ. Йому на допомогу приходить ідеальна істота - на вигляд тендітна дівчина, яка вражена агресивністю земної цивілізації. Її звуть Лілу. Коли настане цей час, вона доповнить чотири елементи усього сутнього: вогонь, воду, землю і повітря. Але по-справжньому врятувати світ може лише кохання...


Тривалість: 02:06:03
Якість: відеофайл з Amazon, іноді з'являється логотип каналу STARZ
Відео:
кодек:
розмір кадру: 1920 х 1080
бітрейт: 12 Мб/с

Аудіо # 1:
мова: українська
переклад: двоголосий закадровий TET/1+1/2+2/Новий
кодек: 2.0
бітрейт: 192 кб/с

Аудіо # 2:
мова: українська
переклад: багатоголосий закадровий ICTV
кодек: 2.0
бітрейт: 192 кб/с

Аудіо # 3:
мова: українська
переклад: двоголосий закадровий СТБ
кодек: 2.0
бітрейт: 192 кб/с

Аудіо # 4:
мова: англійська
переклад: оригінал
кодек: 5.1
бітрейт: 1510 кб/с

Субтитри:
мова: англійська
тип: програмні (м'які)
формат: *.srt
Info
General
Unique ID : 210765602925473252785508627402165274771 (0x9E8FFA8503092ABDB9EB4D961D3B4893)
Complete name : E:\The Fifth Element (1997) 1080p [3x-ukr,eng] [Open Matte].
Format :
Format version : Version 4 / Version 2
File size : 12.6 GiB
Duration : 2h 6mn
Overall bit rate mode : Variable
Overall bit rate : 14.4 Mbps
Encoded date : UTC 2017-07-15 14:23:43
Writing application : v8.8.0 ('Wind at my back') 64bit
Writing library : libebml v1.3.3 + v1.4.4
DURATION : 02:04:52.694000000
NUMBER_OF_FRAMES : 1766
NUMBER_OF_BYTES : 67732
_STATISTICS_WRITING_APP : v8.8.0 ('Wind at my back') 64bit
_STATISTICS_WRITING_DATE_UTC : 2017-07-15 14:23:43
_STATISTICS_TAGS : BPS DURATION NUMBER_OF_FRAMES NUMBER_OF_BYTES

Video
ID : 1
Format : AVC
Format/Info : Advanced Video Codec
Format profile : [email protected]
Format settings, CABAC : Yes
Format settings, ReFrames : 4 frames
Codec ID : V_MPEG4/ISO/AVC
Duration : 2h 6mn
Bit rate mode : Variable
Bit rate : 12.0 Mbps
Maximum bit rate : 15.0 Mbps
Width : 1 920 pixels
Height : 1 080 pixels
Display aspect ratio : 16:9
Frame rate mode : Constant
Frame rate : 23.976 fps
Color space : YUV
Chroma subsampling : 4:2:0
Bit depth : 8 bits
Scan type : Progressive
Bits/(Pixel*Frame) : 0.241
Stream size : 10.6 GiB (83%)
Default : Yes
Forced : No
Color range : Limited
Color primaries : BT.709
Transfer characteristics : BT.709
Matrix coefficients : BT.709

Audio #1
ID : 2
Format : AC-3
Format/Info : Audio Coding 3
Mode extension : CM (complete main)
Format settings, Endianness : Big
Codec ID : A_AC3
Duration : 2h 6mn
Bit rate mode : Constant
Bit rate : 192 Kbps
Channel(s) : 2 channels
Channel positions : Front: L R
Sampling rate : 48.0 KHz
Bit depth : 16 bits
Compression mode : Lossy
Stream size : 173 MiB (1%)
Title : «1+1»
Language : Ukrainian
Default : Yes
Forced : Yes

Audio #2
ID : 3
Format : AC-3
Format/Info : Audio Coding 3
Mode extension : CM (complete main)
Format settings, Endianness : Big
Codec ID : A_AC3
Duration : 2h 6mn
Bit rate mode : Constant
Bit rate : 192 Kbps
Channel(s) : 2 channels
Channel positions : Front: L R
Sampling rate : 48.0 KHz
Bit depth : 16 bits
Compression mode : Lossy
Stream size : 173 MiB (1%)
Title : «СТБ»
Language : Ukrainian
Default : No
Forced : No

Audio #3
ID : 4
Format : AC-3
Format/Info : Audio Coding 3
Mode extension : CM (complete main)
Format settings, Endianness : Big
Codec ID : A_AC3
Duration : 2h 6mn
Bit rate mode : Constant
Bit rate : 192 Kbps
Channel(s) : 2 channels
Channel positions : Front: L R
Sampling rate : 48.0 KHz
Bit depth : 16 bits
Compression mode : Lossy
Stream size : 173 MiB (1%)
Title : «ICTV»
Language : Ukrainian
Default : No
Forced : No

Audio #4
ID : 5
Format :
Format/Info : Digital Theater Systems
Mode : 16
Format settings, Endianness : Big
Codec ID : A_DTS
Duration : 2h 6mn
Bit rate mode : Constant
Bit rate : 1 510 Kbps
Channel(s) : 6 channels
Channel positions : Front: L C R, Side: L R, LFE
Sampling rate : 48.0 KHz
Bit depth : 24 bits
Compression mode : Lossy
Stream size : 1.33 GiB (11%)
Language : English
Default : No
Forced : No

Text #1
ID : 6
Format : UTF-8
Codec ID : S_TEXT/UTF8
Codec ID/Info : UTF-8 Plain Text
Language : English
Default : Yes
Forced : No
Порівняння Блюрею та Вебки





Скріншоти







Подяка:
Пану xslim та karvai0 за запис доріжки №1,
Пану slavik_v_z та xslim за запис доріжки №2,
Пану ua2004 за запис доріжки №4,
Та Пану BigMak за українізований постер і Пану robotron005 за зведення доріжок.

P.S: [Open Matte] - Це відеофайл з повною картинкою без чорних смуг зверху та знизу, але більшість таких відео мають і мінус у тому, що по боках(у деяких кадрах) картинка трохи обрізана і цей фільм не виключення.
Джерело: &
Особиста оцінка: 10 - без зайвих вагань рекомендую всім!


Срібний реліз (на рейтинг впливає 50% завантаженого)
 Трекер:    Зареєстрований   

Завантажити / скачати фільм українською



відео для новачків



 Зареєстрований:   2017-07-15 17:14
 Розмір:   12.64 GB 
 Оцінка фільму:   6.8/10 (Голосів: 32)
   
mrsdoubtfire 
Поважний учасник


З нами з: 22.10.15
Востаннє: 06.02.18
Повідомлень: 162

2017-07-15 18:01  
Хоч би Валеріан вийшов не гіршим.
Валеріан та місто тисячі планет (2017)

igor911 
Відео Гуртом
Відео Гуртом


З нами з: 18.01.08
Востаннє: 10.12.18
Повідомлень: 11553

2017-07-15 18:30  
в деяких епізодах тупо обрізали боки, нічого не додавши зверху та знизу:


Додано через 2 хвилини 49 секунд:

Anonymous, вкажи автора зведення звуку.

Anonymous 







2017-07-15 19:13  
igor911 написано:
вкажи автора зведення звуку.

вказав

igor911 написано:
в деяких епізодах тупо обрізали боки

і про це теж написав.
релізер написано:
мінус у тому, що по боках картинка трохи обрізана і цей фільм не виключення.

igor911 
Відео Гуртом
Відео Гуртом


З нами з: 18.01.08
Востаннє: 10.12.18
Повідомлень: 11553

2017-07-15 19:15  
я мав на увазі, що обрізали з боків нічого не додавши зверху/знизу
omm 
Відео Гуртом - фільмокрай
Відео Гуртом - фільмокрай


З нами з: 12.06.12
Востаннє: 10.12.18
Повідомлень: 2266

2017-07-15 19:48  
Anonymous написано:
і про це теж написав.

написали таким чином, начебто весь фільм по боках обрізаний.. Але ж насправді лише деякі епізоди.
Кілька епізодів - зовсім нестрашно. Open Matte - це круто. Радує, що останнім часом більше фільмів в такому варіанті з'являється.

Anonymous 







2017-07-15 19:57  
igor911
а й справді, я й не помітив навіть(

omm
ваша правда, трохи змінив, щоб люди не полякались.

vash1 
Поважний учасник


З нами з: 16.03.16
Востаннє: 09.12.18
Повідомлень: 150

2018-09-26 23:20  
igor911
igor911 написано:
P.S: [Open Matte] - Це відеофайл з повною картинкою без чорних смуг зверху та знизу, але більшість таких відео мають і мінус у тому, що по боках(у деяких кадрах) картинка трохи обрізана і цей фільм не виключення.


Блін, як шкода... Як багато таких епізодів в % співвідношенні

Ваш часовий пояс: GMT + 2 Години

Нова тема   Відповісти