Перемагай / Win Win (2011) 1080p Ukr/Eng | Sub Eng

Нові коментарі

Нова тема   Відповісти
Автор Повідомлення
IronBee 
Свій


З нами з: 08.02.10
Востаннє: 16.10.17
Повідомлень: 72

2017-07-15 11:23  
Перемагай / Win Win (2011) 1080p Ukr/Eng | Sub Eng

Перемагай / Win Win (2011) 1080p Ukr/Eng | Sub Eng


Жанр: комедія, драма, спорт
Країна: США



Кінокомпанія: Fox Searchlight Pictures, Everest Entertainment, Groundswell Productions
Режисер: Томас МакКарті
Актори: Пол Джиаматті, Мелані Лінскі, Емі Раян, Джеффрі Тембор, Боббі Кенневейл, Марґо Мартіндейл, Барт Йонґ

Сюжет:
У юриста Майкла Флагерті в житті досить проблем, щоб загнати його в глибоку депресію, але є й розрада - під час свого понаднормового підробітку тренером з боротьби в школі він зустрічає хлопчину, котрий з перших занять демонструє неабиякий хист. Неозброєним оком видно, що хлопець може зробити блискучу кар'єру в спорті, та є одна проблема - його мати, яка більше думає про гроші, аніж про сина.


Тривалість: 01:46:01
Якість: 1080p
Відео:
кодек:
розмір кадру: 1920 х 1034
бітрейт: 12,5 Мб/с

Аудіо # 1:Джерело озвучення:
мова: українська
переклад: багатоголосий закадровий
кодек: 2.0
бітрейт: 192 кб/с

Аудіо # 2:
мова: англійська
переклад: оригінал
кодек: 5.1
бітрейт: 1509 кб/с

Субтитри:
мова: англійська
тип: програмні (м'які)
формат: *.srt
Info
General
Unique ID : 253739941684160928354644669735204955380 (0xBEE489016731C1E49AD02365A09E24F4)
Complete name : E:\Films\Win Win (2011) [Ukr,Eng] 1080p [Hurtom].
Format :
Format version : Version 4 / Version 2
File size : 10.5 GiB
Duration : 1 h 46 min
Overall bit rate : 14.2 Mb/s
Movie name : IRONCLUB
Encoded date : UTC 2017-07-14 14:01:59
Writing application : mkvmerge v13.0.0 ('The Juggler') 64bit
Writing library : libebml v1.3.4 + libmatroska v1.4.5

Video
ID : 1
Format : AVC
Format/Info : Advanced Video Codec
Format profile : [email protected]
Format settings, CABAC : Yes
Format settings, ReFrames : 4 frames
Codec ID : V_MPEG4/ISO/AVC
Duration : 1 h 46 min
Bit rate : 12.5 Mb/s
Width : 1 920 pixels
Height : 1 034 pixels
Display aspect ratio : 1.85:1
Frame rate mode : Constant
Frame rate : 23.976 (24000/1001) FPS
Color space : YUV
Chroma subsampling : 4:2:0
Bit depth : 8 bits
Scan type : Progressive
Bits/(Pixel*Frame) : 0.263
Stream size : 9.25 GiB (88%)
Title : Win.Win.2011.Bluray.1080p..
Writing library : core 116 r2057 0ba8a9c
Encoding settings : cabac=1 / ref=3 / deblock=1:-3:-3 / analyse=0x3:0x133 / me=umh / subme=10 / psy=1 / psy_rd=1.00:0.00 / mixed_ref=1 / me_range=32 / chroma_me=1 / trellis=2 / 8x8dct=1 / cqm=0 / deadzone=21,11 / fast_pskip=0 / chroma_qp_offset=-2 / threads=18 / sliced_threads=0 / nr=0 / decimate=0 / interlaced=0 / bluray_compat=0 / constrained_intra=0 / bframes=7 / b_pyramid=2 / b_adapt=2 / b_bias=0 / direct=3 / weightb=1 / open_gop=0 / weightp=2 / keyint=250 / keyint_min=23 / scenecut=40 / intra_refresh=0 / rc_lookahead=40 / rc=2pass / mbtree=0 / bitrate=12500 / ratetol=1.0 / qcomp=0.65 / qpmin=0 / qpmax=40 / qpstep=4 / cplxblur=20.0 / qblur=0.5 / vbv_maxrate=50000 / vbv_bufsize=50000 / nal_hrd=none / ip_ratio=1.25 / pb_ratio=1.25 / aq=1:0.65
Language : English
Default : No
Forced : No

Audio #1
ID : 2
Format : AC-3
Format/Info : Audio Coding 3
Mode extension : CM (complete main)
Format settings, Endianness : Big
Codec ID : A_AC3
Duration : 1 h 46 min
Bit rate mode : Constant
Bit rate : 192 kb/s
Channel(s) : 2 channels
Channel positions : Front: L R
Sampling rate : 48.0 kHz
Frame rate : 31.250 FPS (1536 spf)
Bit depth : 16 bits
Compression mode : Lossy
Stream size : 146 MiB (1%)
Default : Yes
Forced : No

Audio #2
ID : 3
Format :
Format/Info : Digital Theater Systems
Mode : 16
Format settings, Endianness : Big
Codec ID : A_DTS
Duration : 1 h 46 min
Bit rate mode : Constant
Bit rate : 1 509 kb/s
Channel(s) : 6 channels
Channel positions : Front: L C R, Side: L R, LFE
Sampling rate : 48.0 kHz
Frame rate : 93.750 FPS (512 spf)
Bit depth : 24 bits
Compression mode : Lossy
Delay relative to video : 11 ms
Stream size : 1.12 GiB (11%)
Title : Original
Language : English
Default : No
Forced : No

Text
ID : 4
Format : UTF-8
Codec ID : S_TEXT/UTF8
Codec ID/Info : UTF-8 Plain Text
Duration : 1 h 43 min
Bit rate : 77 b/s
Count of elements : 1714
Stream size : 58.6 KiB (0%)
Title : English
Language : English
Default : No
Forced : No

Menu
00:00:00.000 : en:00:00:00.000
00:04:51.917 : en:00:04:51.917
00:09:06.254 : en:00:09:06.254
00:14:20.109 : en:00:14:20.109
00:19:57.863 : en:00:19:57.863
00:24:36.517 : en:00:24:36.517
00:29:40.821 : en:00:29:40.821
00:32:14.558 : en:00:32:14.558
00:37:42.427 : en:00:37:42.427
00:44:59.697 : en:00:44:59.697
00:50:23.771 : en:00:50:23.771
00:54:21.008 : en:00:54:21.008
00:57:16.850 : en:00:57:16.850
01:01:54.210 : en:01:01:54.210
01:06:24.439 : en:01:06:24.439
01:12:03.903 : en:01:12:03.903
01:17:39.989 : en:01:17:39.989
01:21:12.993 : en:01:21:12.993
01:24:32.818 : en:01:24:32.818
01:27:41.256 : en:01:27:41.256
01:35:21.007 : en:01:35:21.007
01:37:33.389 : en:01:37:33.389
01:40:06.000 : en:01:40:06.000
01:41:32.044 : en:01:41:32.044
Скріншоти



Дякую:
за запис з ТБ пану Bohdan237,
синхронізував пан Arsenfpu.

Джерело: &
Особиста оцінка: 10 - без зайвих вагань рекомендую всім!


 Трекер:    Зареєстрований   

Завантажити / скачати фільм українською



відео для новачків



 Зареєстрований:   2017-07-15 11:23
 Розмір:   10.51 GB 
 Оцінка фільму:   10/10 (Голосів: 3)
   
Інші релізи
   Перемагай / Win Win (2011) Ukr/Eng Arsenfpu  24 / 0   1.89 GB   2017-07-12 10:52 
   Перемога / Win Win (2011) 720p Eng | Sub Ukr/Eng Dim-ON  0 / 0   5.44 GB   2011-12-24 03:49 
Electroz 
Відео Гуртом - підтримка та поширення
Відео Гуртом - підтримка та поширення


З нами з: 18.09.14
Востаннє: 17.10.17
Повідомлень: 1689

2017-07-15 11:54  
Чому ви ніколи не пишите в подяках, хто працював над доріжкою?
Треба поважати працю інших людей.

Додано через 8 хвилин 56 секунд:

Синхронізував пан Arsenfpu

IronBee 
Свій


З нами з: 08.02.10
Востаннє: 16.10.17
Повідомлень: 72

2017-07-15 11:54  
Electroz
Все дописав подяку)

Electroz 
Відео Гуртом - підтримка та поширення
Відео Гуртом - підтримка та поширення


З нами з: 18.09.14
Востаннє: 17.10.17
Повідомлень: 1689

2017-07-15 11:56  
IronBee
В заголовку має бути:
Перемагай / Win Win (2011) 1080p Ukr/Eng | Sub Eng

IronBee 
Свій


З нами з: 08.02.10
Востаннє: 16.10.17
Повідомлень: 72

2017-07-15 12:49  
Electroz
Виправив

igor911 
Відео Гуртом
Відео Гуртом


З нами з: 18.01.08
Востаннє: 17.10.17
Повідомлень: 7904

2017-07-17 14:02  
Шкода, не додали українських субтитрів звідси https://toloka.to/t31298
Ваш часовий пояс: GMT + 2 Години

Нова тема   Відповісти