Бебі Бос / The Boss Baby (2017) 1080p 3D [Half OverUnder] Ukr/Eng | Sub Ukr/Eng

Нові коментарі

Нова тема   Відповісти
Автор Повідомлення
Babamin 
Частий відвідувач


З нами з: 29.12.15
Востаннє: 23.08.17
Повідомлень: 26

2017-07-15 11:05  
Бебі Бос / The Boss Baby (2017) 1080p 3D [Half OverUnder] Ukr/Eng | Sub Ukr/Eng

Бебі Бос / The Boss Baby (2017) 1080p 3D [Half OverUnder] Ukr/Eng | Sub Ukr/Eng
«Хто тут шеф?»


Жанр: анімація, комедія, сімейний
Країна: США



Кінокомпанія: DreamWorks Animation
Режисер: Том МакГрат
Актори: Алек Болдвін, Стів Бушемі, Ліза Кудроу, Джиммі Кіммел, Майлз Крістофер Бакші, Тобі Магуайр та інші

Сюжет:
Семирічному Тіму не пощастило – в його родині з'явилася новонароджена дитина, яка забирає всю увагу собі. Хлопчик ревнує і ненавидить немовля. Але той виявляється зовсім не звичайним пупсом, а справжнім Бебі Босом! Він всіма командує, є частиною великої корпорації, може будь-якими засобами досягти своєї мети. А його мета одна – повернути любов до немовлятам, адже людям стали миліше цуценята... Якщо Бос провалить свою задачу, він назавжди залишиться в родині як немовля. Щоб скоріше позбутися від нього, Тім допомагає в досягненні мети.

Тривалість: 01:37:30
Якість: 1080p 3D [Half OverUnder]
Контейнер:

Відео:
кодек:
розмір кадру: 1920 х 1080
бітрейт: 6734 кб/с
Відео для перегляду на 3D обладнанні!

Аудіо # 1:
мова: українська
переклад: професійний дубльований
кодек: 2.0
бітрейт: 192 кб/с

Аудіо # 2:
мова: англійська
переклад: оригінал
кодек: 5.1
бітрейт: 448 кб/с

Субтитри # 1-2:
мова: українська (форсовані, повні)
тип: програмні (м'які)
формат: *.srt

Субтитри # 3:
мова: українська (повні)
тип: пререндерні
формат: *.PGS

Субтитри # 4-5:
мова: англійська (форсовані, повні)
тип: програмні (м'які)
формат: *.srt
Info:
Complete name : The.Boss.Baby.(2017).3D.HOU..1080p.[UKR_ENG].[Hurtom].
Format :
Format version : Version 4 / Version 2
File size : 5.06 GiB
Duration : 1 h 37 min
Overall bit rate : 7 423 kb/s
Movie name : The Boss Baby (2017) 3D HOU 1080p [UKR_ENG] [Hurtom]
Encoded date : UTC 2017-07-15 07:37:23
Writing application : mkvmerge v12.0.0 ('Trust / Lust') 64bit
Writing library : libebml v1.3.4 + libmatroska v1.4.5

Video
ID : 1
Format : AVC
Format/Info : Advanced Video Codec
Format profile : [email protected]
Format settings, CABAC : Yes
Format settings, ReFrames : 5 frames
Codec ID : V_MPEG4/ISO/AVC
Duration : 1 h 37 min
Bit rate : 6 734 kb/s
Width : 1 920 pixels
Height : 1 080 pixels
Display aspect ratio : 16:9
Frame rate mode : Constant
Frame rate : 23.976 (24000/1001) FPS
Color space : YUV
Chroma subsampling : 4:2:0
Bit depth : 8 bits
Scan type : Progressive
Bits/(Pixel*Frame) : 0.135
Stream size : 4.59 GiB (91%)
Title : BoSS.BaBy.2017_3D_HOU -Hurtom-toloka
Writing library : core 148 r2744 b97ae06
Encoding settings : cabac=1 / ref=5 / deblock=1:1:1 / analyse=0x3:0x133 / me=umh / subme=10 / psy=1 / psy_rd=0.80:0.00 / mixed_ref=0 / me_range=32 / chroma_me=1 / trellis=2 / 8x8dct=1 / cqm=0 / deadzone=21,11 / fast_pskip=1 / chroma_qp_offset=-1 / threads=4 / lookahead_threads=1 / sliced_threads=0 / nr=0 / decimate=0 / interlaced=0 / bluray_compat=0 / constrained_intra=0 / bframes=10 / b_pyramid=2 / b_adapt=2 / b_bias=0 / direct=1 / weightb=1 / open_gop=1 / weightp=2 / keyint=240 / keyint_min=23 / scenecut=60 / intra_refresh=0 / rc_lookahead=40 / rc=crf / mbtree=0 / crf=16.5 / qcomp=0.60 / qpmin=0 / qpmax=69 / qpstep=4 / vbv_maxrate=62500 / vbv_bufsize=78125 / crf_max=0.0 / nal_hrd=none / filler=0 / frame-packing=4 / ip_ratio=1.40 / pb_ratio=1.30 / aq=1:0.60
Language : English
Default : Yes
Forced : No
Color range : Limited
Matrix coefficients : BT.709

Audio #1
ID : 2
Format : AC-3
Format/Info : Audio Coding 3
Format settings, Endianness : Big
Codec ID : A_AC3
Duration : 1 h 37 min
Bit rate mode : Constant
Bit rate : 192 kb/s
Channel(s) : 2 channels
Channel positions : Front: L R
Sampling rate : 48.0 kHz
Frame rate : 31.250 FPS (1536 spf)
Bit depth : 16 bits
Compression mode : Lossy
Stream size : 134 MiB (3%)
Title : професійний дубльований
Language : Ukrainian
Service kind : Complete Main
Default : Yes
Forced : No

Audio #2
ID : 3
Format : AC-3
Format/Info : Audio Coding 3
Format settings, Endianness : Big
Codec ID : A_AC3
Duration : 1 h 37 min
Bit rate mode : Constant
Bit rate : 448 kb/s
Channel(s) : 6 channels
Channel positions : Front: L C R, Side: L R, LFE
Sampling rate : 48.0 kHz
Frame rate : 31.250 FPS (1536 spf)
Bit depth : 16 bits
Compression mode : Lossy
Stream size : 312 MiB (6%)
Language : English
Service kind : Complete Main
Default : No
Forced : No

Text #1
ID : 4
Format : UTF-8
Codec ID : S_TEXT/UTF8
Codec ID/Info : UTF-8 Plain Text
Duration : 1 h 19 min
Bit rate : 0 b/s
Count of elements : 21
Stream size : 459 Bytes (0%)
Title : forced
Language : Ukrainian
Default : Yes
Forced : Yes

Text #2
ID : 5
Format : UTF-8
Codec ID : S_TEXT/UTF8
Codec ID/Info : UTF-8 Plain Text
Duration : 1 h 36 min
Bit rate : 96 b/s
Count of elements : 1590
Stream size : 68.4 KiB (0%)
Title : full
Language : Ukrainian
Default : No
Forced : No

Text #3
ID : 6
Format : PGS
Muxing mode : zlib
Codec ID : S_HDMV/PGS
Codec ID/Info : Picture based subtitle format used on BDs/HD-DVDs
Duration : 1 h 36 min
Bit rate : 46.5 kb/s
Count of elements : 3184
Stream size : 32.1 MiB (1%)
Title : 3d sup
Language : Ukrainian
Default : No
Forced : No

Text #4
ID : 7
Format : UTF-8
Codec ID : S_TEXT/UTF8
Codec ID/Info : UTF-8 Plain Text
Duration : 17 s 59 ms
Bit rate : 63 b/s
Count of elements : 9
Stream size : 136 Bytes (0%)
Title : forced
Language : English
Default : No
Forced : No

Text #5
ID : 8
Format : UTF-8
Codec ID : S_TEXT/UTF8
Codec ID/Info : UTF-8 Plain Text
Duration : 1 h 36 min
Bit rate : 59 b/s
Count of elements : 1568
Stream size : 42.1 KiB (0%)
Title : full
Language : English
Default : No
Forced : No

Menu
00:00:00.000 : en:00:00:00.000
00:03:45.891 : en:00:03:45.891
00:08:58.287 : en:00:08:58.287
00:11:45.913 : en:00:11:45.913
00:14:59.565 : en:00:14:59.565
00:19:38.218 : en:00:19:38.218
00:22:52.788 : en:00:22:52.788
00:28:27.247 : en:00:28:27.247
00:30:26.115 : en:00:30:26.115
00:33:45.480 : en:00:33:45.480
00:36:57.255 : en:00:36:57.255
00:39:18.356 : en:00:39:18.356
00:42:35.344 : en:00:42:35.344
00:46:20.610 : en:00:46:20.610
00:51:37.719 : en:00:51:37.719
00:53:25.284 : en:00:53:25.284
00:56:28.717 : en:00:56:28.717
00:59:35.405 : en:00:59:35.405
01:04:03.172 : en:01:04:03.172
01:08:15.757 : en:01:08:15.757
01:11:29.909 : en:01:11:29.909
01:16:25.247 : en:01:16:25.247
01:23:10.109 : en:01:23:10.109
01:27:36.960 : en:01:27:36.960
Скріншоти:





Джерело:


 Трекер:    Зареєстрований   

Завантажити / скачати мультфільм українською



відео для новачків



 Зареєстрований:   2017-07-15 11:05
 Розмір:   5.06 GB 
 Оцінка мультфільму:   9.5/10 (Голосів: 6)
   
Інші релізи
   Бебі Бос / The Boss Baby (2017) 720p Ukr/Eng | Sub Ukr/Eng 11FrYkT  26 / 0   3.57 GB   2017-07-30 16:45 
   Бебі Бос / The Boss Baby (2017) AVC Ukr/Eng | Sub Ukr/Eng Electroz  68 / 5   1.99 GB   2017-07-28 09:21 
   Бебі Бос / The Boss Baby (2017) 1080p Ukr/Eng | Sub Ukr/Eng Electroz  20 / 2   7.02 GB   2017-07-28 09:21 
   Бебі Бос / The Boss Baby (2017) AngryBirdsUA  155 / 6   1.45 GB   2017-05-21 20:59 
igor911 
Відео Гуртом
Відео Гуртом


З нами з: 18.01.08
Востаннє: 23.08.17
Повідомлень: 7338

2017-07-28 08:52  
Є звук з блурея, варто оновити реліз.
Ваш часовий пояс: GMT + 2 Години

Нова тема   Відповісти