Соляріс / Solaris (2002) 1080p Ukr/Eng | Sub Eng

Нові коментарі

Нова тема   Відповісти
Автор Повідомлення
IronBee 
Поважний учасник


З нами з: 08.02.10
Востаннє: 24.05.19
Повідомлень: 219

2017-07-14 21:31  
Соляріс / Solaris (2002) 1080p Ukr/Eng | Sub Eng

Соляріс / Solaris (2002) 1080p Ukr/Eng | Sub Eng


Жанр: драма, детектив, мелодрама, фантастика
Країна: США



Кінокомпанія: Twentieth Century Fox Film Corporation, Lightstorm Entertainment
Режисер: Стівен Содерберг / Steven Soderbergh
Актори: Джордж Клуні / George Clooney, Наташа МакЕлхон / Natascha McElhone, Віола Девіс / Viola Davis, Джеремі Девіс / Jeremy Davies, Ульріх Тукур / Ulrich Tukur, Джон Чо / John Cho, Морган Раслер / Morgan Rusler, Шейн Скелтон / Shane Skelton, Донна Кімбелл / Donna Kimball, Майкл Енсін / Michael Ensign, Елпідія Каррілло / Elpidia Carrillo, Кент Фолкон / Kent Faulcon, Лорен Кон / Lauren Cohn, Тоні Клемонс / Tony Clemons

Сюжет:
На космічну станцію, яка рухається по орбіті загадкової планети Соляріс, прибуває психолог Кріс Кельвін. Його мета - зрозуміти, що відбувається з працюючими там вченими. Кріс виявляє, що керівник експедиції і його старий друг загинули при таємничих обставинах. А незабаром і сам стикається з силою, що стоїть поза гранню людського розуміння...


Тривалість: 01:38:43
Якість: 1080p
Відео:
кодек:
розмір кадру: 1920 х 820
бітрейт: 14.0 Mb/s

Аудіо # 1: Джерело озвучення:
мова: українська
переклад: двоголосий закадровий
кодек: 2.0
бітрейт: 192 кб/с

Аудіо # 2:
мова: англійська
переклад: оригінал
кодек: 5.1
бітрейт: 1509 кб/с

Субтитри:
мова: англійська
тип: програмні (м'які)
формат: *.srt
Info
General
Unique ID : 175973316076601636479177505206411508652 (0x84633A56A38EE4F5954BCBD3988CBBAC)
Complete name : D:\Films\Соляріс Solaris (2002) 1080p UkrEng Sub Eng[Hurtom].
Format :
Format version : Version 4 / Version 2
File size : 10.8 GiB
Duration : 1 h 38 min
Overall bit rate : 15.7 Mb/s
Movie name : Rip by msltel
Encoded date : UTC 2017-07-14 14:09:03
Writing application : v13.0.0 ('The Juggler') 64bit
Writing library : libebml v1.3.4 + v1.4.5

Video
ID : 1
Format : AVC
Format/Info : Advanced Video Codec
Format profile : [email protected]
Format settings, CABAC : Yes
Format settings, ReFrames : 4 frames
Codec ID : V_MPEG4/ISO/AVC
Duration : 1 h 38 min
Bit rate : 14.0 Mb/s
Width : 1 920 pixels
Height : 820 pixels
Display aspect ratio : 2.35:1
Frame rate mode : Constant
Frame rate : 23.976 (24000/1001) FPS
Color space : YUV
Chroma subsampling : 4:2:0
Bit depth : 8 bits
Scan type : Progressive
Bits/(Pixel*Frame) : 0.371
Stream size : 9.66 GiB (89%)
Writing library : core 146 r2538 121396c
Encoding settings : cabac=1 / ref=4 / deblock=1:-3:-2 / analyse=0x3:0x113 / me=umh / subme=11 / psy=1 / psy_rd=1.00:0.15 / mixed_ref=1 / me_range=32 / chroma_me=1 / trellis=2 / 8x8dct=1 / cqm=0 / deadzone=21,11 / fast_pskip=0 / chroma_qp_offset=-3 / threads=6 / lookahead_threads=1 / sliced_threads=0 / nr=0 / decimate=1 / interlaced=0 / bluray_compat=0 / constrained_intra=0 / bframes=13 / b_pyramid=2 / b_adapt=2 / b_bias=0 / direct=1 / weightb=1 / open_gop=0 / weightp=2 / keyint=230 / keyint_min=23 / scenecut=40 / intra_refresh=0 / rc_lookahead=40 / rc=crf / mbtree=0 / crf=18.5 / qcomp=0.60 / qpmin=0 / qpmax=69 / qpstep=4 / vbv_maxrate=62500 / vbv_bufsize=78125 / crf_max=0.0 / nal_hrd=none / filler=0 / ip_ratio=1.40 / pb_ratio=1.30 / aq=1:1.00
Language : English
Default : Yes
Forced : No

Audio #1
ID : 2
Format : AC-3
Format/Info : Audio Coding 3
Mode extension : CM (complete main)
Format settings, Endianness : Big
Codec ID : A_AC3
Duration : 1 h 38 min
Bit rate mode : Constant
Bit rate : 192 kb/s
Channel(s) : 2 channels
Channel positions : Front: L R
Sampling rate : 48.0 kHz
Frame rate : 31.250 FPS (1536 spf)
Bit depth : 16 bits
Compression mode : Lossy
Stream size : 136 MiB (1%)
Default : Yes
Forced : No

Audio #2
ID : 3
Format :
Format/Info : Digital Theater Systems
Mode : 16
Format settings, Endianness : Big
Codec ID : A_DTS
Duration : 1 h 38 min
Bit rate mode : Constant
Bit rate : 1 509 kb/s
Channel(s) : 6 channels
Channel positions : Front: L C R, Side: L R, LFE
Sampling rate : 48.0 kHz
Frame rate : 93.750 FPS (512 spf)
Bit depth : 16 bits
Compression mode : Lossy
Stream size : 1.04 GiB (10%)
Title : original
Language : English
Default : No
Forced : No

Text
ID : 4
Format : UTF-8
Codec ID : S_TEXT/UTF8
Codec ID/Info : UTF-8 Plain Text
Duration : 1 h 37 min
Bit rate : 37 b/s
Count of elements : 937
Stream size : 26.5 KiB (0%)
Language : English
Default : No
Forced : No

Menu
00:00:00.000 : en:Chapter 01
00:15:03.777 : en:Chapter 02
00:28:53.606 : en:Chapter 03
00:39:58.187 : en:Chapter 04
00:51:28.126 : en:Chapter 05
01:01:59.048 : en:Chapter 06
01:11:21.860 : en:Chapter 07
01:18:08.809 : en:Chapter 08
01:23:53.361 : en:Chapter 09
01:32:35.466 : en:Chapter 10
01:38:41.916 : en:Chapter 11
Скріншоти



Джерело: &
Особиста оцінка: 0 - не дивився


Срібний реліз (на рейтинг впливає 50% завантаженого)
 Трекер:    Зареєстрований   

Завантажити / скачати фільм українською



відео для новачків



 Зареєстрований:   2017-07-14 21:31
 Розмір:   10.84 GB 
 Оцінка фільму:   9.3/10 (Голосів: 12)
   
Інші релізи
   Соляріс / Solaris (2002) 720p Ukr/Eng | Sub Eng drop_plz  3 / 0   4.07 GB   2018-08-21 05:28 
   Соляріс / Solaris (2002) Ukr/Eng | Sub Eng taraskill1  7 / 0   1.69 GB   2017-07-12 11:02 
Ваш часовий пояс: GMT + 2 Години

Нова тема   Відповісти