Ворота (Сезон 1) / The Gates (Season 1) (2010) 720p Ukr/Eng

Нові коментарі

Нова тема   Відповісти
Автор Повідомлення
Anonymous 







2017-07-14 20:18  

1-й сезон: | 720p


Ворота (Сезон 1) / The Gates (Season 1) (2010) 720p Ukr/Eng

Ворота (Сезон 1) / The Gates (Season 1) (2010) 720p Ukr/Eng


Жанр: драма, містика
Країна: США



Кінокомпанія: Summerland Entertainment, Fox Television Studios, Little Engine Entertainment
Режисери: Девід Баррет (David Barrett), Фред Гербер (Fred Gerber), Террі МакДонаф (Terry McDonough)
Актори: Рона Мітра (Rhona Mitra), Френк Грілло (Frank Grillo), Мерісоль Ніколс (Marisol Nichols), Люк Маблі (Luke Mably), Чандра Вест (Chandra West), Колтон Гейнс (Colton Haynes), Джорджа Коул (Georgia Cole), Скайлер Семюелс (Skyler Samuels), МакКайлі Міллер (McKaley Miller), Брет Каллен (Brett Cullen) та інші

Сюжет:
Нік Монаган – поліцейський з Чикаго. Рік тому, під час чергування, він застрелив людину й досі не може оговтатися від того, що сталося. Пропозиція очолити поліцейський відділок у тихому елітному містечку з'являється дуже вчасно. Разом із дружиною та двома дітьми Нік перебирається до Воріт у надії почати нове спокійне життя. Але якої там. Уже в перший робочий день йому доводиться розслідувати таємниче зникнення робітника. І це тільки початок цілої низки страшних і загадкових подій. Атмосфера в місті загострюється, конфлікти виникають один за одним. При близькому розгляді мирні мешканці містечка виявляються надприродними істотами. Нік розуміє – він і його родина опинилися в епіцентрі протистояння споконвіку ворогуючих кланів вампірів і перевертнів.

Тривалість: 1 серія: ~43 хв. (цілком серій: 13)
Перелік серій
01. Pilot / Пілотна серія
02. What lies beneath / Що приховує брехня
03. Breach / Порушення
04. The monster within / Поруч із монстром
05. Repercussions / Наслідки
06. Jurisdiction / Юрисдикція
07. Digging the dirt / Копирсаючись у багнуці
08. Dog eat dog / Людина людині вовк
09. Identity crisis / Криза особистості
10. Little girl lost / Загублена дівчинка
11. Surfacing / Те що вспливло
12. Bad moon rising / Схід лихого місяця
13. Moving day / День від'їзду
Якість:
Відео:
кодек:
розмір кадру: 1280 х 720
бітрейт: ~4700 кб/с

Аудіо # 1:
мова: українська
переклад: професійний дубльований
кодек: 2.0
бітрейт: 192 кб/с

Аудіо # 2:
мова: англійська
переклад: оригінал
кодек: 5.1
бітрейт: 384 кб/с

Джерело озвучення:
Info
General
Unique ID : 203268594676295593844529655022988462474 (0x98EC1B7996EB4A1C80F2D66E200A898A)
Complete name : E:\Support\The Gates (Season 1) [, 720p, Ukr, Eng]\The Gates. S01E01. Pilot.
Format :
Format version : Version 4 / Version 2
File size : 1.43 GiB
Duration : 43 min 17 s
Overall bit rate : 4 746 kb/s
Encoded date : UTC 2017-07-10 20:55:11
Writing application : v13.0.0 ('The Juggler') 64bit
Writing library : libebml v1.3.4 + v1.4.5

Video
ID : 1
Format : AVC
Format/Info : Advanced Video Codec
Format profile : [email protected]
Format settings, CABAC : No
Format settings, ReFrames : 2 frames
Codec ID : V_MPEG4/ISO/AVC
Duration : 43 min 17 s
Bit rate : 4 168 kb/s
Width : 1 280 pixels
Height : 720 pixels
Display aspect ratio : 16:9
Frame rate mode : Constant
Frame rate : 23.976 (24000/1001) FPS
Color space : YUV
Chroma subsampling : 4:2:0
Bit depth : 8 bits
Scan type : Progressive
Bits/(Pixel*Frame) : 0.189
Stream size : 1.26 GiB (88%)
Language : English
Default : Yes
Forced : No
Color range : Limited
Color primaries : BT.709
Transfer characteristics : BT.709
Matrix coefficients : BT.709

Audio #1
ID : 2
Format : AC-3
Format/Info : Audio Coding 3
Format settings, Endianness : Big
Codec ID : A_AC3
Duration : 43 min 17 s
Bit rate mode : Constant
Bit rate : 192 kb/s
Channel(s) : 2 channels
Channel positions : Front: L R
Sampling rate : 48.0 kHz
Frame rate : 31.250 FPS (1536 spf)
Bit depth : 16 bits
Compression mode : Lossy
Stream size : 59.4 MiB (4%)
Title : ТЕТ
Language : Ukrainian
Service kind : Complete Main
Default : Yes
Forced : No

Audio #2
ID : 3
Format : AC-3
Format/Info : Audio Coding 3
Format settings, Endianness : Big
Codec ID : A_AC3
Duration : 43 min 17 s
Bit rate mode : Constant
Bit rate : 384 kb/s
Channel(s) : 6 channels
Channel positions : Front: L C R, Side: L R, LFE
Sampling rate : 48.0 kHz
Frame rate : 31.250 FPS (1536 spf)
Bit depth : 16 bits
Compression mode : Lossy
Stream size : 119 MiB (8%)
Language : English
Service kind : Complete Main
Default : No
Forced : No
Скріншоти

Запис з ТБ - BILko та Technomate, синхронізація - BILko

Джерело:
Особиста оцінка: 8 - непогано, але до дубляжу довелося звикати


Бронзовий реліз (на рейтинг впливає 75% завантаженого)
 Трекер:    Зареєстрований   

Завантажити / скачати серіал українською



відео для новачків



 Зареєстрований:   2017-07-14 20:18
 Розмір:   18.32 GB 
 Оцінка серіалу:   2.3/10 (Голосів: 12)
   
Іванко1 
Новенький


З нами з: 19.08.10
Востаннє: 16.08.19
Повідомлень: 23

2017-07-14 21:43  
Є інші релізи на Толоці.
Bohdan237 
Відео Гуртом - фільмокрай
Відео Гуртом - фільмокрай


З нами з: 13.02.12
Востаннє: 17.08.19
Повідомлень: 992

2017-07-15 23:07  
Непоганий серіал про вампірів та перевертнів які оселилися в затишному містечку, єдине через що прикро так це через те, що зняли тільки перший сезон без продовження сюжету, який склався
Ваш часовий пояс: GMT + 2 Години

Нова тема   Відповісти