Обдарована / Gifted (2017) 1080p Ukr/Eng | Sub Ukr/Eng

Нові коментарі

Нова тема   Відповісти
Автор Повідомлення
sergiyko.5 
VIP


З нами з: 25.02.16
Востаннє: 18.01.18
Повідомлень: 1299

2017-07-13 22:26  
Обдарована / Gifted (2017) 1080p Ukr/Eng | Sub Ukr/Eng

Обдарована / Gifted (2017) 1080p Ukr/Eng | Sub Ukr/Eng

Жанр: драма
Країна: США
Режисер: Марк Вебб
Актори: Кріс Еванс, Маккенна Грейс, Єнні Слейт, Октавія Спенсер, Ліндсей Данкан, Джулі Енн Емері, Гленн Пламмер

Сюжет:
Френк Адлер — неодружений чоловік, який сам виховує свою талановиту племінницю Мері. Але раптом в їх життя повертається її бабуся, мати Френка, і подає в суд, щоб домогтися одноосібної опіки над дівчинкою.





Тривалість:
01:41:10
Якість: 1080p

Відео: кодек: розмір кадру: 1920 х 800 бітрейт: 14200 кб/с
Аудіо #1: мова: українська переклад: професійний дубльований кодек: 5.1 бітрейт: 448 кб/с | Blu-ray EUR |
Аудіо #2: мова: англійська переклад: оригінал кодек: 5.1 бітрейт: 640 кб/с
Субтитри #1: мова: українська тип: програмні (м'які) формат: *.srt
Субтитри #2,3,4: мова: англійська тип: програмні (м'які) формат: *.srt
Про файл
General
Unique ID : 188829237644018933661020582252543122293 (0x8E0F303570DCD05D8A811262DFD69B75)
Complete name : D:\Torrents\FILMS\Gifted.2017.1080p..Ukr.Eng.
Format :
Format version : Version 4 / Version 2
File size : 10.8 GiB
Duration : 1 h 41 min
Overall bit rate : 15.3 Mb/s
Movie name : Gifted 2017
Encoded date : UTC 2017-10-27 06:37:25
Writing application : mkvmerge v17.0.0 ('Be Ur Friend') 64-bit
Writing library : libebml v1.3.5 + libmatroska v1.4.8
Cover : Yes
Attachments : cover.jpg

Video
ID : 1
Format : AVC
Format/Info : Advanced Video Codec
Format profile : [email protected]
Format settings, CABAC : Yes
Format settings, RefFrames : 5 frames
Codec ID : V_MPEG4/ISO/AVC
Duration : 1 h 41 min
Bit rate : 14.2 Mb/s
Width : 1 920 pixels
Height : 800 pixels
Display aspect ratio : 2.40:1
Frame rate mode : Constant
Frame rate : 23.976 (24000/1001) FPS
Color space : YUV
Chroma subsampling : 4:2:0
Bit depth : 8 bits
Scan type : Progressive
Bits/(Pixel*Frame) : 0.387
Stream size : 10.1 GiB (93%)
Title : Gifted 2017 1080p
Writing library : core 152 r2851 ba24899
Encoding settings : cabac=1 / ref=5 / deblock=1:-3:-3 / analyse=0x3:0x113 / me=umh / subme=10 / psy=1 / psy_rd=1.05:0.00 / mixed_ref=1 / me_range=32 / chroma_me=1 / trellis=2 / 8x8dct=1 / cqm=1 / deadzone=21,11 / fast_pskip=0 / chroma_qp_offset=-1 / threads=12 / lookahead_threads=2 / sliced_threads=0 / nr=0 / decimate=1 / interlaced=0 / bluray_compat=0 / constrained_intra=0 / bframes=8 / b_pyramid=2 / b_adapt=2 / b_bias=0 / direct=3 / weightb=1 / open_gop=0 / weightp=2 / keyint=230 / keyint_min=23 / scenecut=40 / intra_refresh=0 / rc_lookahead=40 / rc=crf / mbtree=0 / crf=16.3 / qcomp=0.65 / qpmin=10 / qpmax=69 / qpstep=4 / vbv_maxrate=62500 / vbv_bufsize=78125 / crf_max=0.0 / nal_hrd=none / filler=0 / ip_ratio=1.30 / pb_ratio=1.20 / aq=1:0.75
Language : English
Default : Yes
Forced : No

Audio #1
ID : 2
Format : AC-3
Format/Info : Audio Coding 3
Format settings, Endianness : Big
Codec ID : A_AC3
Duration : 1 h 41 min
Bit rate mode : Constant
Bit rate : 448 kb/s
Channel(s) : 6 channels
Channel positions : Front: L C R, Side: L R, LFE
Sampling rate : 48.0 kHz
Frame rate : 31.250 FPS (1536 SPF)
Bit depth : 16 bits
Compression mode : Lossy
Stream size : 324 MiB (3%)
Title : Blu-ray EUR
Language : Ukrainian
Service kind : Complete Main
Default : Yes
Forced : Yes

Audio #2
ID : 3
Format : AC-3
Format/Info : Audio Coding 3
Format settings, Endianness : Big
Codec ID : A_AC3
Duration : 1 h 41 min
Bit rate mode : Constant
Bit rate : 640 kb/s
Channel(s) : 6 channels
Channel positions : Front: L C R, Side: L R, LFE
Sampling rate : 48.0 kHz
Frame rate : 31.250 FPS (1536 SPF)
Bit depth : 16 bits
Compression mode : Lossy
Stream size : 463 MiB (4%)
Language : English
Service kind : Complete Main
Default : No
Forced : No

Text #1
ID : 4
Format : UTF-8
Codec ID : S_TEXT/UTF8
Codec ID/Info : UTF-8 Plain Text
Duration : 1 h 40 min
Bit rate : 109 b/s
Count of elements : 1537
Stream size : 80.1 KiB (0%)
Title : Ukr
Language : Ukrainian
Default : No
Forced : No

Text #2
ID : 5
Format : UTF-8
Codec ID : S_TEXT/UTF8
Codec ID/Info : UTF-8 Plain Text
Duration : 1 h 40 min
Bit rate : 66 b/s
Count of elements : 1751
Stream size : 48.5 KiB (0%)
Title : Full
Language : English
Default : No
Forced : No

Text #3
ID : 6
Format : UTF-8
Codec ID : S_TEXT/UTF8
Codec ID/Info : UTF-8 Plain Text
Duration : 1 h 40 min
Bit rate : 69 b/s
Count of elements : 1836
Stream size : 51.1 KiB (0%)
Title : SDH
Language : English
Default : No
Forced : No

Text #4
ID : 7
Format : UTF-8
Codec ID : S_TEXT/UTF8
Codec ID/Info : UTF-8 Plain Text
Duration : 1 h 40 min
Bit rate : 87 b/s
Count of elements : 1837
Stream size : 64.3 KiB (0%)
Title : SDH-Colored
Language : English
Default : No
Forced : No

Menu
00:00:00.000 : en:Chapter 1
00:04:36.318 : en:Chapter 2
00:07:49.302 : en:Chapter 3
00:12:55.525 : en:Chapter 4
00:18:50.004 : en:Chapter 5
00:22:23.008 : en:Chapter 6
00:29:13.085 : en:Chapter 7
00:33:18.830 : en:Chapter 8
00:37:56.399 : en:Chapter 9
00:42:57.825 : en:Chapter 10
00:45:34.357 : en:Chapter 11
00:48:06.675 : en:Chapter 12
00:50:58.806 : en:Chapter 13
00:54:31.685 : en:Chapter 14
00:59:05.959 : en:Chapter 15
01:03:52.787 : en:Chapter 16
01:08:44.787 : en:Chapter 17
01:14:52.279 : en:Chapter 18
01:19:29.348 : en:Chapter 19
01:23:44.770 : en:Chapter 20
01:26:54.751 : en:Chapter 21
01:29:38.832 : en:Chapter 22
01:32:49.272 : en:Chapter 23
01:35:36.648 : en:Chapter 24
Скріншоти:



 Трекер:    Зареєстрований   

Завантажити / скачати фільм українською



відео для новачків



 Зареєстрований:   2017-10-27 08:49
 Розмір:   10.83 GB 
 Оцінка фільму:   9.6/10 (Голосів: 51)
   
Інші релізи
   Обдарована / Gifted (2017) Remux 1080p Ukr/Eng | Sub Ukr/Eng/Spa/Fre IronBee  7 / 0   24.52 GB   2017-10-28 17:23 
   Обдарована / Gifted (2017) 720p Ukr/Eng | Sub Ukr/Eng 11FrYkT  39 / 0   4.16 GB   2017-10-27 17:04 
   Обдарована / Gifted (2017) AVC Ukr/Eng | Sub Ukr/Eng 11FrYkT  56 / 0   1.81 GB   2017-10-27 17:03 
   Обдарована / Gifted (2017) Ukr/Eng | Sub Ukr/Eng leicheman  74 / 1   1.74 GB   2017-10-26 21:42 
lion822 
Свій


З нами з: 27.12.11
Востаннє: 18.01.18
Повідомлень: 122

2017-07-14 10:56  
тюнс перенесли ? ще вчора мало вийти
leicheman 
Відео Гуртом - підтримка та поширення
Відео Гуртом - підтримка та поширення


З нами з: 03.07.14
Востаннє: 18.01.18
Повідомлень: 1691

2017-07-14 11:42  
lion822
вчора й вийшло.

lion822 
Свій


З нами з: 27.12.11
Востаннє: 18.01.18
Повідомлень: 122

2017-07-14 14:57  
leicheman написано:
вчора й вийшло.

вже бачив що на клабi виклали ремукс але роздавати як завжди будуть довго ((

Electroz 
Відео Гуртом - підтримка та поширення
Відео Гуртом - підтримка та поширення


З нами з: 18.09.14
Востаннє: 18.01.18
Повідомлень: 2161

2017-07-14 15:03  
lion822 написано:
але роздавати як завжди будуть довго ((

Ні, ремукс звідти вже завантажив.

mrsdoubtfire 
Поважний учасник


З нами з: 22.10.15
Востаннє: 11.01.18
Повідомлень: 164

2017-07-14 16:27  
За фактом відсутності цього фільму в українському прокаті варто відкрити кримінальне провадження.
lion822 
Свій


З нами з: 27.12.11
Востаннє: 18.01.18
Повідомлень: 122

2017-07-14 17:05  
Electroz написано:
Ні, ремукс звідти вже завантажив.

чекаемо на релiз

bot 
робот


З нами з: 30.09.07
Востаннє: 26.05.05
Повідомлень: 18095

2017-07-14 20:04  
Тему перенесено з Анонси релізів до форуму Фільми в HD


sergiyko.5

Dimanhya 
Частий відвідувач


З нами з: 09.06.14
Востаннє: 18.01.18
Повідомлень: 33

2017-07-15 18:40  
Не впевнений що за останні декілька років було щось краще від даного фільму.
Тверді 10 з 10.

v.fonic 
Новенький


З нами з: 05.12.14
Востаннє: 18.01.18
Повідомлень: 6

2017-07-15 22:03  
Цей фільм однозначно залишає слід на серці.Є над чим задуматись.Тільки 10!
sergiyko.5 
VIP


З нами з: 25.02.16
Востаннє: 18.01.18
Повідомлень: 1299

2017-07-18 06:21  
Фільм чудовий, треба дивитись всім.
Alex-doctor 
Новенький


З нами з: 17.02.13
Востаннє: 13.01.18
Повідомлень: 15

2017-07-18 20:15  
Фільм однозначно вартий перегляду...Є над чим задуматися...
_Alex_UA 
Свій


З нами з: 18.07.12
Востаннє: 10.01.18
Повідомлень: 136

2017-07-20 20:31  
10з10. Нічого зайвого, класний фільм.
Онтар 
Новенький


З нами з: 22.09.14
Востаннє: 07.01.18
Повідомлень: 6

2017-07-23 11:46  
Хороший та важкий фільм, 10/10
sergiyko.5 
VIP


З нами з: 25.02.16
Востаннє: 18.01.18
Повідомлень: 1299

2017-07-31 08:04  
v.fonic написано:
Цей фільм однозначно залишає слід на серці.Є над чим задуматись.Тільки 10!

+1

maleficmax 
Свій


З нами з: 18.04.12
Востаннє: 13.01.18
Повідомлень: 63

2017-07-31 22:24  
А українська доріжка є на http://dorizhky.hurtom.com? Не можу знайти. Якщо немає, панове адміни, можете викласти?
Дякую!

sergiyko.5 
VIP


З нами з: 25.02.16
Востаннє: 18.01.18
Повідомлень: 1299

2017-08-01 07:34  
maleficmax
А самому витягти слабий!?

sergiyko.5 
VIP


З нами з: 25.02.16
Востаннє: 18.01.18
Повідомлень: 1299

2017-10-27 08:50  
Торент оновлено. Замінено відео та українську доріжку на якісніші варіанти.
igor911 
Відео Гуртом
Відео Гуртом


З нами з: 18.01.08
Востаннє: 18.01.18
Повідомлень: 8872

2017-10-27 09:00  
Золото на тиждень для заохочення підтримки.
archi86 
Свій


З нами з: 06.01.15
Востаннє: 18.01.18
Повідомлень: 123

2017-11-01 09:45  
Супер фільм.
koi.ua 
Новенький


З нами з: 11.03.17
Востаннє: 09.01.18
Повідомлень: 1

2017-11-01 11:12  
Раджу всім до перегляду!
hetzendorf 
Відео Гуртом - підтримка та поширення
Відео Гуртом - підтримка та поширення


З нами з: 23.07.15
Востаннє: 18.01.18
Повідомлень: 700

2017-11-12 02:41  
Сподіваюся, цей фільм буде хоча б номінований на Оскар, бо якось негарно так пробивати дно, як з минулорічними «переможцями»
10/10

EvGaS 
Відео Гуртом - субтитрування
Відео Гуртом - субтитрування


З нами з: 27.02.12
Востаннє: 18.01.18
Повідомлень: 4419

2017-11-12 14:32  


Кофтинка геніальної дівчинки.

Додано через 1 годину 47 хвилин 46 секунд:

Гарна трагікомедія, давно так не сміявся.
Хіба що бабця — зовсім контужена, викликала то бажання прикласти її лопатою, то сміх через гумор абсурду.

Фільм все ж на один раз, інакше — хіба що фанам малої акторки, для якої цей фільм згодом стане стартовим майданчиком для отримання нових ролей з подорослішанням.

Відьмачечок 
Свій


З нами з: 17.05.11
Востаннє: 15.01.18
Повідомлень: 70

2017-12-04 00:36  
Чудова сімейна стрічка
Ваш часовий пояс: GMT + 2 Години

Нова тема   Відповісти