O.Torvald - #нашілюдивсюди (Eurovision 2017 Edition) (2017) [FLAC] | Rock

Нові коментарі

Нова тема   Відповісти
Останній раз роздавалося vladmu (2017-11-19)
Автор Повідомлення
frejo 
Новенький


З нами з: 17.10.10
Востаннє: 12.11.17
Повідомлень: 6

2017-07-13 21:47  
O.Torvald - #нашілюдивсюди (Eurovision 2017 Edition) (2017) [FLAC] | Rock

O.Torvald - #нашілюдивсюди (Eurovision 2017 Edition) (2017) [FLAC] | Rock


Стиль: Alternative, Rock
Країна, місто: Україна, Полтава
Видавець: United Music Group
Виконавці:
Євген Галич (гітара, вокал)
Денис «Ден» Мизюк (гітара)
Микита Васильєв (бас-гітара)
Олександр Солоха (барабани)
Микола Райда — DJ Полярник (клавішні, DJ)
Пісні:
    01. Intro - 1:06
    02. Дим - 3:18
    03. Вирвана - 3:58
    04. #нашілюдивсюди - 4:04
    05. Копы - 3:07
    06. Не меняй меня ft. Mickey - 3:04
    07. Знаки - 3:40
    08. На дні - 4:25
    09. Твой дух - твоё оружие (OST 'Правило боя') - 4:00
    10. Вирвана (Nick Nicker remix) - 3:26
    11. #нашілюдивсюди (Vovking remix) - 3:13
    12. Time - 3:06

Тривалість: 00:40:28
Мова: українська (1—4, 7—8, 10—11), російська (5—6, 9), англійська (12)
Аудіо-кодек: FLAC
Бітрейт: 968 кб/с
Джерело: диск
log
Exact Audio Copy V1.3 from 2. September 2016

EAC extraction logfile from 13. July 2017, 21:11

O.Torvald / #нашілюдивсюди

Used drive : HL-DT-STDVDRAM GSA-U20N Adapter: 1 ID: 0

Read mode : Secure
Utilize accurate stream : Yes
Defeat audio cache : Yes
Make use of C2 pointers : No

Read offset correction : 667
Overread into Lead-In and Lead-Out : No
Fill up missing offset samples with silence : Yes
Delete leading and trailing silent blocks : No
Null samples used in CRC calculations : Yes
Used interface : Native Win32 interface for Win NT & 2000
Gap handling : Appended to previous track

Used output format : User Defined Encoder
Selected bitrate : 320 kBit/s
Quality : High
Add ID3 tag : No
Command line compressor : D:\Programs\foobar2000\encoders\flac.exe
Additional command line options : -8 -V -T "ARTIST=%artist%" -T "TITLE=%title%" -T "ALBUM=%albumtitle%" -T "DATE=%year%" -T "TRACKNUMBER=%tracknr%" -T "GENRE=%genre%" -T "PERFORMER=%albuminterpret%" -T "COMPOSER=%composer%" %haslyrics%--tag-from-file=LYRICS="%lyricsfile%"%haslyrics% -T "ALBUMARTIST=%albumartist%" -T "DISCNUMBER=%cdnumber%" -T "TOTALDISCS=%totalcds%" -T "TOTALTRACKS=%numtracks%" -T "COMMENT=%comment%" %source% -o %dest%

TOC of the extracted CD

Track | Start | Length | Start sector | End sector
---------------------------------------------------------
1 | 0:00.00 | 1:05.48 | 0 | 4922
2 | 1:05.48 | 3:17.52 | 4923 | 19749
3 | 4:23.25 | 3:58.01 | 19750 | 37600
4 | 8:21.26 | 4:04.37 | 37601 | 55937
5 | 12:25.63 | 3:07.31 | 55938 | 69993
6 | 15:33.19 | 3:04.14 | 69994 | 83807
7 | 18:37.33 | 3:39.50 | 83808 | 100282
8 | 22:17.08 | 4:24.69 | 100283 | 120151
9 | 26:42.02 | 4:00.35 | 120152 | 138186
10 | 30:42.37 | 3:25.48 | 138187 | 153609
11 | 34:08.10 | 3:12.74 | 153610 | 168083
12 | 37:21.09 | 3:06.35 | 168084 | 182068

Track 1

Filename D:\O.Torvald - 2017 - #нашілюдивсюди\01. Intro.wav

Pre-gap length 0:00:02.00

Peak level 100.0 %
Extraction speed 0.8 X
Track quality 100.0 %
Test CRC 09F66F75
Copy CRC 09F66F75
Track not present in AccurateRip database
Copy OK

Track 2

Filename D:\O.Torvald - 2017 - #нашілюдивсюди\02. Дим.wav

Peak level 100.0 %
Extraction speed 1.9 X
Track quality 100.0 %
Test CRC D4E14CA9
Copy CRC D4E14CA9
Track not present in AccurateRip database
Copy OK

Track 3

Filename D:\O.Torvald - 2017 - #нашілюдивсюди\03. Вирвана.wav

Peak level 100.0 %
Extraction speed 2.4 X
Track quality 99.9 %
Test CRC D63FB9C9
Copy CRC D63FB9C9
Track not present in AccurateRip database
Copy OK

Track 4

Filename D:\O.Torvald - 2017 - #нашілюдивсюди\04. #нашілюдивсюди.wav

Peak level 100.0 %
Extraction speed 3.0 X
Track quality 100.0 %
Test CRC 538C268A
Copy CRC 538C268A
Track not present in AccurateRip database
Copy OK

Track 5

Filename D:\O.Torvald - 2017 - #нашілюдивсюди\05. Копы.wav

Peak level 100.0 %
Extraction speed 3.0 X
Track quality 100.0 %
Test CRC 44EA49AD
Copy CRC 44EA49AD
Track not present in AccurateRip database
Copy OK

Track 6

Filename D:\O.Torvald - 2017 - #нашілюдивсюди\06. Не меняй меня ft. Mickey.wav

Peak level 100.0 %
Extraction speed 3.1 X
Track quality 100.0 %
Test CRC 250D33A8
Copy CRC 250D33A8
Track not present in AccurateRip database
Copy OK

Track 7

Filename D:\O.Torvald - 2017 - #нашілюдивсюди\07. Знаки.wav

Peak level 100.0 %
Extraction speed 3.4 X
Track quality 100.0 %
Test CRC 65536425
Copy CRC 65536425
Track not present in AccurateRip database
Copy OK

Track 8

Filename D:\O.Torvald - 2017 - #нашілюдивсюди\08. На дні.wav

Peak level 100.0 %
Extraction speed 3.3 X
Track quality 99.9 %
Test CRC 813A4987
Copy CRC 813A4987
Track not present in AccurateRip database
Copy OK

Track 9

Filename D:\O.Torvald - 2017 - #нашілюдивсюди\09. Твой дух - твоё оружие (OST ''Правило боя'').wav

Peak level 100.0 %
Extraction speed 3.8 X
Track quality 100.0 %
Test CRC 5BC14383
Copy CRC 5BC14383
Track not present in AccurateRip database
Copy OK

Track 10

Filename D:\O.Torvald - 2017 - #нашілюдивсюди\10. Вирвана (Nick Nicker remix).wav

Peak level 78.6 %
Extraction speed 3.9 X
Track quality 100.0 %
Test CRC 5593AB67
Copy CRC 5593AB67
Track not present in AccurateRip database
Copy OK

Track 11

Filename D:\O.Torvald - 2017 - #нашілюдивсюди\11. #нашілюдивсюди (Vovking remix).wav

Peak level 87.1 %
Extraction speed 4.0 X
Track quality 100.0 %
Test CRC 5DFC2FC2
Copy CRC 5DFC2FC2
Track not present in AccurateRip database
Copy OK

Track 12

Filename D:\O.Torvald - 2017 - #нашілюдивсюди\12. Time.wav

Peak level 100.0 %
Extraction speed 4.0 X
Track quality 100.0 %
Test CRC 6652A7F5
Copy CRC 6652A7F5
Track not present in AccurateRip database
Copy OK

None of the tracks are present in the AccurateRip database

No errors occurred

End of status report

---- CUETools DB Plugin V2.1.6

[CTDB TOCID: gnuO80ZCGei9uqF6SFoNXkj16wE-] disk not present in database
Submit result: gnuO80ZCGei9uqF6SFoNXkj16wE- has been uploaded

==== Log checksum 296C8671C86A19AAE6E53E4CCD8B3B8B52797DBB00394FE179365E6436809B6D ====
cue
REM GENRE Rock
REM DATE 2017
REM DISCID 91097B0C
REM COMMENT "ExactAudioCopy v1.3"
PERFORMER "O.Torvald"
TITLE "#нашілюдивсюди"
REM COMPOSER ""
FILE "01. Intro.wav" WAVE
TRACK 01 AUDIO
TITLE "Intro"
PERFORMER "O.Torvald"
REM COMPOSER ""
INDEX 01 00:00:00
FILE "02. Дим.wav" WAVE
TRACK 02 AUDIO
TITLE "Дим"
PERFORMER "O.Torvald"
REM COMPOSER ""
INDEX 01 00:00:00
FILE "03. Вирвана.wav" WAVE
TRACK 03 AUDIO
TITLE "Вирвана"
PERFORMER "O.Torvald"
REM COMPOSER ""
INDEX 01 00:00:00
FILE "04. #нашілюдивсюди.wav" WAVE
TRACK 04 AUDIO
TITLE "#нашілюдивсюди"
PERFORMER "O.Torvald"
REM COMPOSER ""
INDEX 01 00:00:00
FILE "05. Копы.wav" WAVE
TRACK 05 AUDIO
TITLE "Копы"
PERFORMER "O.Torvald"
REM COMPOSER ""
INDEX 01 00:00:00
FILE "06. Не меняй меня ft. Mickey.wav" WAVE
TRACK 06 AUDIO
TITLE "Не меняй меня ft. Mickey"
PERFORMER "O.Torvald"
REM COMPOSER ""
INDEX 01 00:00:00
FILE "07. Знаки.wav" WAVE
TRACK 07 AUDIO
TITLE "Знаки"
PERFORMER "O.Torvald"
REM COMPOSER ""
INDEX 01 00:00:00
FILE "08. На дні.wav" WAVE
TRACK 08 AUDIO
TITLE "На дні"
PERFORMER "O.Torvald"
REM COMPOSER ""
INDEX 01 00:00:00
FILE "09. Твой дух - твоё оружие (OST ''Правило боя'').wav" WAVE
TRACK 09 AUDIO
TITLE "Твой дух - твоё оружие (OST 'Правило боя')"
PERFORMER "O.Torvald"
REM COMPOSER ""
INDEX 01 00:00:00
FILE "10. Вирвана (Nick Nicker remix).wav" WAVE
TRACK 10 AUDIO
TITLE "Вирвана (Nick Nicker remix)"
PERFORMER "O.Torvald"
REM COMPOSER ""
INDEX 01 00:00:00
FILE "11. #нашілюдивсюди (Vovking remix).wav" WAVE
TRACK 11 AUDIO
TITLE "#нашілюдивсюди (Vovking remix)"
PERFORMER "O.Torvald"
REM COMPOSER ""
INDEX 01 00:00:00
FILE "12. Time.wav" WAVE
TRACK 12 AUDIO
TITLE "Time"
PERFORMER "O.Torvald"
REM COMPOSER ""
INDEX 01 00:00:00
Якщо Ви справді бажаєте підтримати українське - після прослуховування, якщо музика вам сподобалась, придбайте ліцензійний диск. Підтримаймо вітчизняних виконавців!


Срібний реліз (на рейтинг впливає 50% завантаженого)
 Трекер:    Зареєстрований   

Завантажити / скачати українську музику



відео для новачків



 Зареєстрований:   2017-07-13 21:47
 Розмір:   281 MB 
 Оцінка музики:   9.7/10 (Голосів: 7)
   
Danicool1991 
Новенький


З нами з: 03.10.09
Востаннє: 26.10.17
Повідомлень: 5

2017-10-25 23:32  
Станьте на роздачу, будь ласка)
Ваш часовий пояс: GMT + 2 Години

Нова тема   Відповісти