Розумник Вілл Хантінг / Розумник Вілл Гантінґ / Good Will Hunting (1997) AVC Ukr/Eng | sub Ukr/Eng

Нові коментарі

Нова тема   Відповісти
Автор Повідомлення
dr0 
Новенький


З нами з: 13.04.16
Востаннє: 21.09.17
Повідомлень: 6

2017-07-13 04:59  
Розумник Вілл Хантінг (Гантінґ) / Good Will Hunting (1997) AVC Ukr/Eng | sub Ukr/Eng

Розумник Вілл Хантінг / Розумник Вілл Гантінґ / Good Will Hunting (1997) AVC Ukr/Eng | sub Ukr/Eng


Жанр: драма
Країна: США



Кінокомпанія: Be Gentlemen Limited Partnership, Lawrence Bender Productions, Miramax Films
Режисер: Гас Ван Сент
Актори: Метт Деймон, Робін Вільямс, Бен Аффлек, Стеллан Скарсгард, Мінні Драйвер, Кейсі Аффлек, Коул Хаузер, Джон Майтон

Сюжет:
Вілл Хантінг — 20-річний хлопець з Бостона, який раз за разом вплутується в неприємні історії. Несподівано він відкриває в собі феноменальні математичні здібності. Коли поліція заарештовує його за чергову бійку, професор математики бере його під свою опіку, але за однієї умови: Вілл повинен пройті курс психотерапії. Сеанси «перевиховання», що почалися з недовіри, поступово переростають в дружбу між Віллом і його наставником.


Тривалість: 02:06:33
Якість: AVC
Відео:
кодек:
розмір кадру: 864 х 468
бітрейт: 1370 кб/с

Аудіо # 1:
мова: українська
переклад: багатоголосий закадровий
кодек: 2.0
бітрейт: 114 кб/с

Аудіо # 2:
мова: англійська
переклад: оригінал
кодек: 2.0
бітрейт: 144 кб/с

Джерело озвучення:


Субтитри:
мова: українська
тип: програмні (м'які)
формат: *.srt

Субтитри:
мова: англійська
тип: програмні (м'які)
формат: *.srt
Info
Код:
General
Unique ID                      : 172571268599881495851533679996508332953 (0x81D404729AFF0BD99E67A782E9686399)
Complete name                  : Good Will Hunting (1997) AVC [Ukr, Eng] [Hurtom].
Format                         :
Format version                 : Version 4 / Version 2
File size                      : 1.44 GiB
Duration                       : 2h 6mn
Overall bit rate               : 1 629 Kbps
Encoded date                   : UTC 2017-07-12 23:00:53
Writing application            : mkvmerge v7.3.0 ('Nouages') 64bit built on Oct 22 2014 18:53:34
Writing library                : libebml v1.3.0 + libmatroska v1.4.1
DURATION                       : 02:05:35.619000000
NUMBER_OF_FRAMES               : 1398
NUMBER_OF_BYTES                : 98789
_STATISTICS_WRITING_APP        : mkvmerge v7.3.0 ('Nouages') 64bit built on Oct 22 2014 18:53:34
_STATISTICS_WRITING_DATE_UTC   : 2017-07-12 23:00:53
_STATISTICS_TAGS               : BPS DURATION NUMBER_OF_FRAMES NUMBER_OF_BYTES

Video
ID                             : 1
Format                         : AVC
Format/Info                    : Advanced Video Codec
Format profile                 : [email protected]
Format settings, CABAC         : Yes
Format settings, ReFrames      : 9 frames
Codec ID                       : V_MPEG4/ISO/AVC
Duration                       : 2h 6mn
Nominal bit rate               : 1 370 Kbps
Width                          : 864 pixels
Height                         : 468 pixels
Display aspect ratio           : 1.85:1
Frame rate                     : 23.976 fps
Color space                    : YUV
Chroma subsampling             : 4:2:0
Bit depth                      : 8 bits
Scan type                      : Progressive
Bits/(Pixel*Frame)             : 0.141
Writing library                : core 104 r1688 0b36c6d
Encoding settings              : cabac=1 / ref=9 / deblock=1:-2:-1 / analyse=0x3:0x113 / me=umh / subme=10 / psy=1 / psy_rd=0.80:0.00 / mixed_ref=1 / me_range=16 / chroma_me=1 / trellis=2 / 8x8dct=1 / cqm=0 / deadzone=21,11 / fast_pskip=1 / chroma_qp_offset=-2 / threads=3 / sliced_threads=0 / nr=0 / decimate=1 / interlaced=0 / constrained_intra=0 / bframes=7 / b_pyramid=2 / b_adapt=2 / b_bias=0 / direct=3 / weightb=1 / open_gop=0 / weightp=2 / keyint=250 / keyint_min=23 / scenecut=40 / intra_refresh=0 / rc_lookahead=0 / rc=2pass / mbtree=0 / bitrate=1370 / ratetol=1.0 / qcomp=0.70 / qpmin=10 / qpmax=51 / qpstep=4 / cplxblur=20.0 / qblur=0.5 / vbv_maxrate=50000 / vbv_bufsize=62500 / ip_ratio=1.40 / pb_ratio=1.30 / aq=2:1.00 / nal_hrd=none
Language                       : English
Default                        : Yes
Forced                         : No
DURATION                       : 02:06:33.169000000
NUMBER_OF_FRAMES               : 182054
NUMBER_OF_BYTES                : 1300496113
_STATISTICS_WRITING_APP        : mkvmerge v7.3.0 ('Nouages') 64bit built on Oct 22 2014 18:53:34
_STATISTICS_WRITING_DATE_UTC   : 2017-07-12 23:00:53
_STATISTICS_TAGS               : BPS DURATION NUMBER_OF_FRAMES NUMBER_OF_BYTES
Matrix coefficients            : BT.709-5, BT.1361, IEC 61966-2-4 709, SMPTE RP177

Audio #1
ID                             : 2
Format                         :
Format/Info                    : Advanced Audio Codec
Format profile                 : LC
Codec ID                       : 40
Duration                       : 2h 6mn
Bit rate mode                  : Variable
Bit rate                       : 114 Kbps
Maximum bit rate               : 156 Kbps
Channel(s)                     : 2 channels
Channel positions              : Front: L R
Sampling rate                  : 48.0 KHz
Compression mode               : Lossy
Stream size                    : 103 MiB
Writing library                : Nero codec 1.5.4.0
Encoding settings              : -q 0.40 -lc
Delay relative to video        : 9ms
Language                       : Ukrainian
Default                        : Yes
Forced                         : No

Audio #2
ID                             : 3
Format                         :
Format/Info                    : Advanced Audio Codec
Format profile                 : LC
Codec ID                       : 40
Duration                       : 2h 6mn
Bit rate mode                  : Variable
Bit rate                       : 144 Kbps
Maximum bit rate               : 199 Kbps
Channel(s)                     : 2 channels
Channel positions              : Front: L R
Sampling rate                  : 48.0 KHz
Compression mode               : Lossy
Stream size                    : 128 MiB
Writing library                : Nero codec 1.5.4.0
Encoding settings              : -q 0.50 -lc
Delay relative to video        : 9ms
Language                       : English
Default                        : No
Forced                         : No

Text #1
ID                             : 4
Format                         : UTF-8
Codec ID                       : S_TEXT/UTF8
Codec ID/Info                  : UTF-8 Plain Text
Language                       : Ukrainian
Default                        : No
Forced                         : No

Text #2
ID                             : 5
Format                         : UTF-8
Codec ID                       : S_TEXT/UTF8
Codec ID/Info                  : UTF-8 Plain Text
Language                       : English
Default                        : No
Forced                         : No

Menu
00:00:00.000                   : en:Who Proved the Theorem?
00:09:43.499                   : en:Cruisin' for a Bruisin'
00:15:46.403                   : en:Fun at the Harvard Bar
00:28:43.388                   : en:Nightmare for Therapists
00:37:14.982                   : en:Session with Sean
00:52:44.411                   : en:First to Talk
00:59:01.329                   : en:A Visit to the Dorm
01:03:04.572                   : en:When did you Know?
01:08:22.348                   : en:Meeting the Guys
01:14:25.042                   : en:A Difference of Opinion
01:17:54.878                   : en:A Retainer, Please
01:22:44.584                   : en:Take Back
01:43:49.805                   : en:Different Perspectives
01:52:34.706                   : en:Last Session
01:54:44.836                   : en:Birthday Present
01:58:18.049                   : en:Leaving
Скріншоти


Срібний реліз (на рейтинг впливає 50% завантаженого)
 Трекер:    Зареєстрований   

Завантажити / скачати фільм українською



відео для новачків



 Зареєстрований:   2017-07-13 04:59
 Розмір:   1.44 GB 
 Оцінка фільму:   9.8/10 (Голосів: 16)
   
Ваш часовий пояс: GMT + 2 Години

Нова тема   Відповісти