Ласкаво просимо до раю (Вітаємо в раю) / Into the Blue (2005) 1080p 2xUkr/Eng | Sub Ukr/Eng

Нові коментарі

Нова тема   Відповісти
Останній раз роздавалося MAGnitos (2017-08-18)
Автор Повідомлення
IronBee 
Свій


З нами з: 08.02.10
Востаннє: 16.08.17
Повідомлень: 62

2017-07-12 19:10  
Ласкаво просимо до раю (Вітаємо в раю) / Into the Blue (2005) 1080p 2xUkr/Eng | Sub Ukr/Eng

Ласкаво просимо до раю (Вітаємо в раю) / Into the Blue (2005) 1080p 2xUkr/Eng | Sub Ukr/Eng


Жанр: пригодницький, драма, кримінальний, трилер
Країна: США



Кінокомпанія: Columbia Pictures Corporation, Mandalay Pictures, Metro-Goldwyn-Mayer (MGM)
Режисер: Джон Стокуелл / John Stockwell
Актори: Пол Вокер / Paul Walker, Джессіка Альба / Jessica Alba, Скотт Каан / Scott Caan, Ешлі Скотт / Ashley Scott, Двейн Едвей / Dwayne Adway, Джош Бролін / Josh Brolin та інші

Сюжет:
Інструктору з дайвінгу Джареду вже 29 років і він вирішує кинути роботу і зайнятися справою, якою мріяв заробляти на життя з дитинства, а саме - шукати затонулі скарби в уламках кораблів, що століттями покриті піском на морському дні. Невдаха мисливець за скарбом зустрічається з красивою дівчиною Самантою , яка працює в Аквапарку. Джаред хоче розбагатіти і багато чого досягти у житті, а Саманта щиро любить свого хлопця і не звертає уваги на трейлер, в якому вони живуть, на старий і дірявий човен і на безперспективність поліпшення фінансів.

В гості до них на Багамські острови навідується добрий товариш, який працює в Нью-Йорку адвокатом, зі своєю подругою Амандою. Молоді люди вирішують добре відпочити: вони беруть на прокат хороший човен і відпливають далеко в море. Пірнаючи на глибину з балонами на спині друзі насолоджуються морськими пейзажами і жителями водного світу, а одного дня наштовхуються на морському дні на літак, що зазнав аварію. У літаку знаходяться наркотики на мільйони доларів. Спокуса велика: можна взяти гроші і зажити по-новому, наприклад, закупити хороше обладнання для пошуку затонулих скарбів як у морського магната Бейтса, а можна загриміти за грати або ще гірше отримати кулю в голову. Проте їхні карти плутають контрабандисти, які ось-ось виявлять літак.


Тривалість: 01:50:12
Якість: 1080p
Відео:
кодек:
розмір кадру: 1920 х 808
бітрейт: 11.6 Mb/s

Аудіо # 1:
мова: українська (AMC)
переклад: багатоголосий закадровий
кодек: 2.0
бітрейт: 192 кб/с
перекладено як: "Вітаємо в раю"

Аудіо # 2:
мова: українська (1+1,2+2, Новий канал)
переклад: двоголосий закадровий
кодек: 2.0
бітрейт: 192 кб/с
перекладено як: "Ласкаво просимо до раю"

Аудіо # 3:
мова: англійська
переклад: оригінал
кодек: 5.1
бітрейт: 1510 кб/с

Субтитри:
мова: англійська
тип: програмні (м'які)
формат: *.srt

Субтитри:
мова: українська
тип: програмні (м'які)
формат: *.srt
Info
General
Unique ID : 231237763192942633428059601539920015897 (0xADF6C5F319423E7EB6490ADB69CFB219)
Complete name : D:\Films\Into the Blue (2005) 1080p[2xUkr,Eng] [Hurtom].
Format :
Format version : Version 4 / Version 2
File size : 10.4 GiB
Duration : 1 h 50 min
Overall bit rate : 13.5 Mb/s
Movie name : Into the Blue (2005) - Release for marcury
Encoded date : UTC 2017-07-12 14:37:24
Writing application : mkvmerge v13.0.0 ('The Juggler') 64bit
Writing library : libebml v1.3.4 + libmatroska v1.4.5

Video
ID : 1
Format : AVC
Format/Info : Advanced Video Codec
Format profile : [email protected]
Format settings, CABAC : Yes
Format settings, ReFrames : 7 frames
Codec ID : V_MPEG4/ISO/AVC
Duration : 1 h 50 min
Bit rate : 11.6 Mb/s
Width : 1 920 pixels
Height : 808 pixels
Display aspect ratio : 2.40:1
Frame rate mode : Constant
Frame rate : 23.976 (24000/1001) FPS
Color space : YUV
Chroma subsampling : 4:2:0
Bit depth : 8 bits
Scan type : Progressive
Bits/(Pixel*Frame) : 0.312
Stream size : 8.93 GiB (86%)
Title : Into The Blue 2005
Writing library : core 57 svn-709C
Encoding settings : cabac=1 / ref=4 / deblock=1:-3:-3 / analyse=0x3:0x133 / me=umh / fpel_cmp=sad / subme=7 / me-prepass=0 / brdo=1 / mixed_ref=1 / me_range=24 / chroma_me=1 / trellis=2 / 8x8dct=1 / cqm=2 / deadzone=21,11 / chroma_qp_offset=0 / threads=6 / nr=0 / decimate=0 / mbaff=0 / bframes=4 / b_pyramid=1 / b_adapt=1 / b_bias=0 / direct=3 / wpredb=1 / bime=1 / keyint=250 / keyint_min=25 / scenecut=40(pre) / rc=2pass / bitrate=11600 / ratetol=1.0 / rceq='blurCplx^(1-qComp)' / qcomp=0.60 / qpmin=10 / qpmax=51 / qpstep=4 / cplxblur=20.0 / qblur=0.5 / ip_ratio=1.40 / pb_ratio=1.30
Language : English
Default : Yes
Forced : No

Audio #1
ID : 2
Format : AC-3
Format/Info : Audio Coding 3
Mode extension : CM (complete main)
Format settings, Endianness : Big
Codec ID : A_AC3
Duration : 1 h 50 min
Bit rate mode : Constant
Bit rate : 192 kb/s
Channel(s) : 2 channels
Channel positions : Front: L R
Sampling rate : 48.0 kHz
Frame rate : 31.250 FPS (1536 spf)
Bit depth : 16 bits
Compression mode : Lossy
Stream size : 151 MiB (1%)
Default : Yes
Forced : No

Audio #2
ID : 3
Format : AC-3
Format/Info : Audio Coding 3
Mode extension : CM (complete main)
Format settings, Endianness : Big
Codec ID : A_AC3
Duration : 1 h 50 min
Bit rate mode : Constant
Bit rate : 192 kb/s
Channel(s) : 2 channels
Channel positions : Front: L R
Sampling rate : 48.0 kHz
Frame rate : 31.250 FPS (1536 spf)
Bit depth : 16 bits
Compression mode : Lossy
Stream size : 151 MiB (1%)
Default : No
Forced : No

Audio #3
ID : 4
Format :
Format/Info : Digital Theater Systems
Mode : 16
Format settings, Endianness : Big
Codec ID : A_DTS
Duration : 1 h 50 min
Bit rate mode : Constant
Bit rate : 1 510 kb/s
Channel(s) : 6 channels
Channel positions : Front: L C R, Side: L R, LFE
Sampling rate : 48.0 kHz
Frame rate : 93.750 FPS (512 spf)
Bit depth : 24 bits
Compression mode : Lossy
Stream size : 1.16 GiB (11%)
Title : english(, 6 ch, 1510 Кбит/с)
Language : English
Default : No
Forced : No

Text #1
ID : 5
Format : UTF-8
Codec ID : S_TEXT/UTF8
Codec ID/Info : UTF-8 Plain Text
Duration : 1 h 45 min
Bit rate : 53 b/s
Count of elements : 1066
Stream size : 41.2 KiB (0%)
Title : English
Language : English
Default : Yes
Forced : No

Text #2
ID : 6
Format : UTF-8
Codec ID : S_TEXT/UTF8
Codec ID/Info : UTF-8 Plain Text
Duration : 1 h 44 min
Bit rate : 84 b/s
Count of elements : 1083
Stream size : 64.9 KiB (0%)
Default : No
Forced : No
Скріншоти



Джерело: &
Особиста оцінка: 0 - не дивився


Срібний реліз (на рейтинг впливає 50% завантаженого)
 Трекер:    Зареєстрований   

Завантажити / скачати фільм українською



відео для новачків



 Зареєстрований:   2017-07-12 19:10
 Розмір:   10.39 GB 
 Оцінка фільму:   9/10 (Голосів: 4)
   
Ваш часовий пояс: GMT + 2 Години

Нова тема   Відповісти