Смурфики: Загублене містечко / Smurfs: The Lost Village (2017) 1080p 3D [Half OverUnder] Ukr/Eng | Sub Ukr/Eng

Нові коментарі

Нова тема   Відповісти
Автор Повідомлення
Babamin 
Частий відвідувач


З нами з: 29.12.15
Востаннє: 17.08.17
Повідомлень: 26

2017-07-10 17:02  
Смурфики: Загублене містечко / Smurfs: The Lost Village (2017) 1080p 3D [Half OverUnder] Ukr/Eng | Sub Ukr/Eng

Смурфики: Загублене містечко / Smurfs: The Lost Village (2017) 1080p 3D [Half OverUnder] Ukr/Eng | Sub Ukr/Eng


Жанр: анімація, комедія, сімейний
Країна: США



Кінокомпанія: Columbia Pictures, Village Roadshow Pictures
Режисер: Келлі Есбері
Актори: Демі Ловато, Джо Манганьєлло, Рейн Вілсон, Менді Петінкін, Денні Пуді, Джек МакБрайер, Джейк Джонсон, Тітус Берджесс, Гебріел Іглесіас, Мішель Родрігес та інші

Сюжет:
У селі смурфиків кожен займається своєю справою. Хтось розумний, хтось сильний, а хтось вміє робити те, що інші не вміють. Тільки Смурфетка, єдина дівчинка в селі, не може знайти чим зайнятися. Але ось одного разу вона зустріла таємничу істоту, яка дуже схожа на смурфиків. Смурфетка вмовляє односельчан піти на пошуки Загубленої села – міфічного місця проживання дивних істот. Дівчинка разом з братами йде назустріч небезпекам і пригодам, адже ніхто з них ніколи не був за межами села.


Тривалість: 01:29:46
Якість: 1080p 3D [Half OverUnder]
Контейнер:

Відео:
кодек:
розмір кадру: 1920 х 1080
бітрейт: 6242 кб/с
Відео для перегляду на 3D обладнанні!

Аудіо # 1:
мова: українська
переклад: професійний дубльований
кодек: 2.0
бітрейт: 192 кб/с

Аудіо # 2:
мова: англійська
переклад: оригінал
кодек: 5.1
бітрейт: 1509 кб/с

Субтитри # 1-2:
мова: українська (форсовані, повні)
тип: програмні (м'які)
формат: *.srt

Субтитри # 3:
мова: англійська
тип: програмні (м'які)
формат: *.srt
Info:
General
Complete name : Smurfs.The.Lost.Village.(2017).3D.HOU.1080p.[UKR_ENG].[Hurtom].
Format :
Format version : Version 4 / Version 2
File size : 4.98 GiB
Duration : 1 h 29 min
Overall bit rate : 7 946 kb/s
Movie name : Smurfs The Lost Village (2017) 3D HOU 1080p -[Hurtom]
Encoded date : UTC 2017-07-10 13:27:16
Writing application : mkvmerge v12.0.0 ('Trust / Lust') 64bit
Writing library : libebml v1.3.4 + libmatroska v1.4.5

Video
ID : 1
Format : AVC
Format/Info : Advanced Video Codec
Format profile : [email protected]
MultiView_Count : 2
MultiView_Layout : Top-Bottom (left eye first)
Format settings, CABAC : Yes
Format settings, ReFrames : 4 frames
Codec ID : V_MPEG4/ISO/AVC
Duration : 1 h 29 min
Bit rate : 6 242 kb/s
Width : 1 920 pixels
Height : 1 080 pixels
Display aspect ratio : 16:9
Frame rate mode : Constant
Frame rate : 23.976 (24000/1001) FPS
Color space : YUV
Chroma subsampling : 4:2:0
Bit depth : 8 bits
Scan type : Progressive
Bits/(Pixel*Frame) : 0.126
Stream size : 3.91 GiB (79%)
Title : Smurfs The Lost Village (2017) 3D HOU 1080p
Writing library : core 148 r2744 b97ae06
Encoding settings : cabac=1 / ref=4 / deblock=1:-2:-2 / analyse=0x3:0x133 / me=umh / subme=11 / psy=0 / mixed_ref=1 / me_range=32 / chroma_me=1 / trellis=2 / 8x8dct=1 / cqm=0 / deadzone=21,11 / fast_pskip=0 / chroma_qp_offset=1 / threads=4 / lookahead_threads=1 / sliced_threads=0 / nr=0 / decimate=0 / interlaced=0 / bluray_compat=0 / constrained_intra=0 / bframes=11 / b_pyramid=2 / b_adapt=2 / b_bias=0 / direct=1 / weightb=1 / open_gop=1 / weightp=2 / keyint=240 / keyint_min=23 / scenecut=40 / intra_refresh=0 / rc_lookahead=40 / rc=crf / mbtree=1 / crf=17.5 / qcomp=0.60 / qpmin=0 / qpmax=69 / qpstep=4 / vbv_maxrate=62500 / vbv_bufsize=78125 / crf_max=0.0 / nal_hrd=none / filler=0 / frame-packing=4 / ip_ratio=1.40 / aq=1:0.60
Language : English
Default : Yes
Forced : No

Audio #1
ID : 2
Format : AC-3
Format/Info : Audio Coding 3
Format settings, Endianness : Big
Codec ID : A_AC3
Duration : 1 h 29 min
Bit rate mode : Constant
Bit rate : 192 kb/s
Channel(s) : 2 channels
Channel positions : Front: L R
Sampling rate : 48.0 kHz
Frame rate : 31.250 FPS (1536 spf)
Bit depth : 16 bits
Compression mode : Lossy
Stream size : 123 MiB (2%)
Title : iTunes
Language : Ukrainian
Service kind : Complete Main
Default : Yes
Forced : No

Audio #2
ID : 3
Format :
Format/Info : Digital Theater Systems
Mode : 16
Format settings, Endianness : Big
Codec ID : A_DTS
Duration : 1 h 29 min
Bit rate mode : Constant
Bit rate : 1 509 kb/s
Channel(s) : 6 channels
Channel positions : Front: L C R, Side: L R, LFE
Sampling rate : 48.0 kHz
Frame rate : 93.750 FPS (512 spf)
Bit depth : 16 bits
Compression mode : Lossy
Stream size : 969 MiB (19%)
Language : English
Default : No
Forced : No

Text #1
ID : 4
Format : UTF-8
Codec ID : S_TEXT/UTF8
Codec ID/Info : UTF-8 Plain Text
Duration : 3 s 379 ms
Bit rate : 125 b/s
Count of elements : 1
Stream size : 53.0 Bytes (0%)
Title : forced
Language : Ukrainian
Default : Yes
Forced : Yes

Text #2
ID : 5
Format : UTF-8
Codec ID : S_TEXT/UTF8
Codec ID/Info : UTF-8 Plain Text
Duration : 1 h 28 min
Bit rate : 85 b/s
Count of elements : 1098
Stream size : 55.2 KiB (0%)
Title : full
Language : Ukrainian
Default : No
Forced : No

Text #3
ID : 6
Format : UTF-8
Codec ID : S_TEXT/UTF8
Codec ID/Info : UTF-8 Plain Text
Duration : 1 h 25 min
Bit rate : 54 b/s
Count of elements : 1094
Stream size : 34.1 KiB (0%)
Title : full
Language : English
Default : No
Forced : No

Menu
00:00:00.000 : en:00:00:00.000
00:08:48.445 : en:00:08:48.445
00:11:03.413 : en:00:11:03.413
00:14:33.748 : en:00:14:33.748
00:21:21.071 : en:00:21:21.071
00:27:25.143 : en:00:27:25.143
00:30:33.540 : en:00:30:33.540
00:36:49.082 : en:00:36:49.082
00:42:41.350 : en:00:42:41.350
00:45:58.673 : en:00:45:58.673
00:50:35.950 : en:00:50:35.950
00:57:03.587 : en:00:57:03.587
01:02:35.293 : en:01:02:35.293
01:09:07.769 : en:01:09:07.769
01:14:39.475 : en:01:14:39.475
01:19:34.478 : en:01:19:34.478
Скріншоти:






Джерело:


 Трекер:    Зареєстрований   

Завантажити / скачати мультфільм українською



відео для новачків



 Зареєстрований:   2017-07-10 17:02
 Розмір:   4.98 GB 
 Оцінка мультфільму:   9/10 (Голосів: 5)
   
Ваш часовий пояс: GMT + 2 Години

Нова тема   Відповісти