Формула 1. Сезон 2017. Етап 09. Гран-Прі Австрії. Перегони (09.07.2017) IPTV 1080p Ukr/Eng

Нові коментарі

Нова тема   Відповісти
Останній раз роздавалося tolokamoloka (2019-01-19)
Автор Повідомлення
sergiyko.5 
VIP


З нами з: 25.02.16
Востаннє: 26.10.20
Повідомлень: 3618

2017-07-09 20:45  
Формула 1. Сезон 2017. Етап 09. Гран-Прі Австрії. Перегони (09.07.2017) IPTV 1080p Ukr/Eng


Формула 1. Сезон 2017. Етап 09. Гран-Прі Австрії. Перегони (09.07.2017) IPTV 1080p Ukr/Eng

Вид спорту: Перегони Формула 1
Джерело: Sky Sport F1 HD, F1UA

Коротенький опис:
9 липня 2017 року відбулись перегони дев'ятого етапу Формули 1 Гран-Прі Австрії.

Тривалість: 01:47:56
Якість: IPTV

Відео: кодек: розмір кадру: 1920 х 1080 бітрейт: 4700 кб/с
Аудіо: мова: українська, переклад: коментар: | Максим Подзігун | кодек: 2.0 бітрейт: 192 кб/с
Аудіо: мова: англійська кодек: 2.0 бітрейт: 128 кб/с
Про файл:
General
Unique ID : 232558065574152131390152770167703528607 (0xAEF50DE2011E56739A9F36087076E49F)
Complete name : D:\Torrents\SPORT\F1.2017.09.Austrian.Race.PDTV.1080p.Ukr.Eng.
Format :
Format version : Version 4 / Version 2
File size : 3.79 GiB
Duration : 1 h 47 min
Overall bit rate : 5 057 kb/s
Movie name : F1.2017.09.Austrian.Race.SkyF1HD.1080p by sergiyko
Encoded date : UTC 2017-07-09 18:16:59
Writing application : v13.0.0 ('The Juggler') 64bit
Writing library : libebml v1.3.4 + v1.4.5

Video
ID : 1
Format : AVC
Format/Info : Advanced Video Codec
Format profile : [email protected]
Format settings, CABAC : Yes
Format settings, RefFrames : 4 frames
Codec ID : V_MPEG4/ISO/AVC
Duration : 1 h 47 min
Bit rate : 4 734 kb/s
Width : 1 920 pixels
Height : 1 080 pixels
Display aspect ratio : 16:9
Frame rate mode : Constant
Frame rate : 25.000 FPS
Color space : YUV
Chroma subsampling : 4:2:0
Bit depth : 8 bits
Scan type : Progressive
Bits/(Pixel*Frame) : 0.091
Stream size : 3.55 GiB (94%)
Title : F1.2017.09.Austrian.Race.SkyF1HD.1080p
Language : English
Default : Yes
Forced : No

Audio #1
ID : 2
Format : AC-3
Format/Info : Audio Coding 3
Format settings, Endianness : Big
Codec ID : A_AC3
Duration : 1 h 47 min
Bit rate mode : Constant
Bit rate : 192 kb/s
Channel(s) : 2 channels
Channel positions : Front: L R
Sampling rate : 48.0 kHz
Frame rate : 31.250 FPS (1536 SPF)
Bit depth : 16 bits
Compression mode : Lossy
Stream size : 148 MiB (4%)
Title : F1UA, Максим Подзігун
Language : Ukrainian
Service kind : Complete Main
Default : Yes
Forced : Yes

Audio #2
ID : 3
Format :
Format/Info : Advanced Audio Codec
Format profile : LC
Codec ID : A_AAC
Duration : 1 h 47 min
Bit rate : 128 kb/s
Channel(s) : 2 channels
Channel positions : Front: L R
Sampling rate : 48.0 kHz
Frame rate : 46.875 FPS (1024 SPF)
Compression mode : Lossy
Stream size : 98.6 MiB (3%)
Language : English
Default : No
Forced : No
Скріншоти:


 Трекер:    Зареєстрований   

Завантажити / скачати торрент



відео для новачків



 Зареєстрований:   2017-07-09 20:45
 Розмір:   3.79 GB 
 Оцінка:   10/10 (Голосів: 4)
   
Ваш часовий пояс: GMT + 2 Години

Нова тема   Відповісти