Елвін і бурундуки (Сезон 1) / Alvinnn!!! And the Chipmunks (Season 1) (2015) 720p

Нові коментарі

Нова тема   Відповісти
Автор Повідомлення
Anonymous 







2017-07-09 20:18  
Елвін і бурундуки (Сезон 1) / Alvinnn!!! And the Chipmunks (Season 1) (2015) 720p

Елвін і бурундуки (Сезон 1) / Alvinnn!!! And the Chipmunks (Season 1) (2015) 720p


Жанр: анімація, комедія, сімейний
Країна: США, Франція, Південна Корея



Кінокомпанія: Bagdasarian Productions, OuiDO! Productions
Режисер: Дженіс Кармен (Janice Karman)
Ролі озвучують: Росс Багдасарін (Ross Bagdasarian Jr.), Дженіс Кармен (Janice Karman), Ванеса Багдасарін (Vanessa Bagdasarian) та інші.

Сюжет:
Здається, що вони – справжні підлітки зі своїми турботами, проблемами і пригодами. Незмінною лишається тільки їхня пристрасть до музики і слави. Адже Теодор, Чіппет, Саймон і Елвін – справжні рок-зірки!


Тривалість: 1 серія: 11:12 (цілком серій: 52)
Перелік серій
01. Ведмедик Тедді
02. Директорка моїх мрій
03. Прибульці прибули
04. Зачарована Жанет
05. Три сестри
06. Малюк Ті
07. Дорослі діти
08. Хулігани
09. Разом назавжди
10. Хто ваш татко
11. Клоунада
12. Робоняня
13. Пригоди містера Мурчика
14. Солодке життя
15. Священна гора
16. Квіти-самоцвіти
17. Молоді таланти
18. Виборчі перегони
19. Служити і захищати
20. Теодор Дон Жуан
21. День сім'ї
22. Давно забуте старе
23. Втрачений талант
24. Моя сестра - дивачка
25. Війни няньок
26. Дикий звір
27. Гарні манери
28. Врятувати рядового Саймона
29. Будиночок на дереві
30. Знову до школи
31. Небезпека понад усе
32. Вези візок
33. Розбрат
34. Власна кімната
35. Екодрузі
36. Пернатий друг
37. Ікона стилю
38. Супергерої
39. Крадений поцілунок
40. Непрохані гості
41. Теодзілла
42. Сімопес
43. Бунт на полі
44. Реальність чи ні
45. Ласий шматочок
46. Привиділося-примарилося
47. Мистецтво заради мистецтва
48. Залишитися в живих
49. Сила думки
50. Холостяцьке лігво
51. Нова сумочка для Брітані
52. Пташик
Якість:
Відео:
кодек:
розмір кадру: 1280 х 720
бітрейт: 1300-1800 кб/с

Аудіо:
мова: українська
переклад: професійний дубльований
кодек: 2.0
бітрейт: 128 кб/с

Джерело озвучення:
,
Info
General
Unique ID : 228306262243236396671563988998563892677 (0xABC22FCB369474F2937DFECBCF3D0DC5)
Complete name : F:\Records\ukr\Елвін і бурундуки (Сезон 1) [, 720p, Ukr]\Серія 01. Ведмедик Тедді.
Format :
Format version : Version 4 / Version 2
File size : 116 MiB
Duration : 11 min 12 s
Overall bit rate : 1 443 kb/s
Encoded date : UTC 2017-05-27 12:47:37
Writing application : v11.0.0 ('Alive') 64bit
Writing library : libebml v1.3.4 + v1.4.5

Video
ID : 1
Format : AVC
Format/Info : Advanced Video Codec
Format profile : [email protected]
Format settings, CABAC : Yes
Format settings, ReFrames : 6 frames
Codec ID : V_MPEG4/ISO/AVC
Duration : 11 min 11 s
Bit rate : 1 313 kb/s
Width : 1 280 pixels
Height : 720 pixels
Display aspect ratio : 16:9
Frame rate mode : Constant
Frame rate : 25.000 FPS
Color space : YUV
Chroma subsampling : 4:2:0
Bit depth : 8 bits
Scan type : Progressive
Bits/(Pixel*Frame) : 0.057
Stream size : 105 MiB (91%)
Writing library : core 142 r2491 24e4fed
Encoding settings : cabac=1 / ref=6 / deblock=1:0:0 / analyse=0x3:0x113 / me=hex / subme=7 / psy=1 / psy_rd=1.00:0.00 / mixed_ref=1 / me_range=16 / chroma_me=1 / trellis=1 / 8x8dct=1 / cqm=0 / deadzone=21,11 / fast_pskip=1 / chroma_qp_offset=-2 / threads=12 / lookahead_threads=2 / sliced_threads=0 / nr=0 / decimate=1 / interlaced=0 / bluray_compat=0 / constrained_intra=0 / bframes=3 / b_pyramid=2 / b_adapt=1 / b_bias=0 / direct=1 / weightb=1 / open_gop=0 / weightp=2 / keyint=100 / keyint_min=10 / scenecut=40 / intra_refresh=0 / rc_lookahead=40 / rc=crf / mbtree=1 / crf=22.0 / qcomp=0.60 / qpmin=0 / qpmax=69 / qpstep=4 / vbv_maxrate=6000 / vbv_bufsize=12000 / crf_max=0.0 / nal_hrd=none / filler=0 / ip_ratio=1.41 / aq=1:1.00
Default : Yes
Forced : No

Audio
ID : 2
Format :
Format/Info : Advanced Audio Codec
Format profile : LC
Codec ID : A_AAC
Duration : 11 min 12 s
Bit rate : 128 kb/s
Channel(s) : 2 channels
Channel positions : Front: L R
Sampling rate : 44.1 kHz
Frame rate : 43.066 FPS (1024 spf)
Compression mode : Lossy
Delay relative to video : -80 ms
Stream size : 10.3 MiB (9%)
Language : Ukrainian
Default : Yes
Forced : No
Скріншоти
Джерело: &
Особиста оцінка: 0 - не дивився


Бронзовий реліз (на рейтинг впливає 75% завантаженого)
 Трекер:    Зареєстрований   

Завантажити / скачати мультфільм українською



відео для новачків



 Зареєстрований:   2017-07-09 20:18
 Розмір:   6.95 GB 
 Оцінка мультсеріалу:   5.1/10 (Голосів: 22)
   
sergiyko.5 
Забанено
Забанено


З нами з: 25.02.16
Востаннє: 29.10.20
Повідомлень: 3648

2017-07-09 21:01  
Думав дійсно 720р, нажаль.
igor911 
Модератор відео


З нами з: 18.01.08
Востаннє: 23.04.21
Повідомлень: 15900

2017-07-10 00:10  
Anonymous написано:
Північна Корея

Happy

Додано через 2 хвилини 43 секунди:

+ треба додати рік в назву

Додано через 1 хвилину 11 секунд:

sergiyko.5 написано:
Думав дійсно 720р, нажаль.

якщо це власноруч кодований апскейл, треба вказати в назві.

Anonymous 







2017-07-10 00:15  
igor911 написано:
Північна Корея

Що за дискримінація за географічною ознакою?

Виправив.

Додано через 4 хвилини 33 секунди:

igor911 написано:
якщо це власноруч кодований апскейл, треба вказати в назві.

Це ріп з усім нам відомого сайту онлайн-перегляду.

igor911 написано:
+ треба додати рік в назву

Зробив.

ingwar 
Модератор літератури


З нами з: 08.03.08
Востаннє: 15.04.21
Повідомлень: 1294

2017-08-07 13:42  
Дякую за серіал. Дочці сподобався Happy
Здивований оцінкою серіалу 2.5... Він явно заслуговує більшого

Anonymous 







2017-08-07 13:58  
ingwar написано:
Здивований оцінкою серіалу 2.5

Модератор, а про мінусмена не знає...

Ваш часовий пояс: GMT + 2 Години

Нова тема   Відповісти