Інк / Ink (2009) 1080p Ukr/Eng

Нові коментарі

Нова тема   Відповісти
Автор Повідомлення
IronBee 
Свій


З нами з: 08.02.10
Востаннє: 19.10.17
Повідомлень: 72

2017-07-09 16:16  
Інк / Ink (2009) 1080p Ukr/Eng

Інк / Ink (2009) 1080p Ukr/Eng


Жанр: фантастика, фентезі, бойовик
Країна: США



Режисер: Джемін Уайненс (Jamin Winans)
Актори: Кріс Келлі (Chris Kelly), Квін Гунчар (Quinn Hunchar), Джессіка Даффі (Jessica Duffy), Дженніфер Беттер (Jennifer Batter), Джеремі Мейк (Jeremy Make) та інші.

Сюжет:
Коли світло зникає і місто засинає, з'являються таємничі істоти. Вони боряться за людські душі, проникаючи крадькома у їхні сни. Одні дають надію і силу через добрі сни, інші вселяються в підсвідоме через жахи.



Тривалість: 01:46:14
Якість: 1080p
Відео:
кодек:
розмір кадру: 1920 х 1080
бітрейт: 8647 kb/s

Аудіо # 1:
мова: українська Джерело озвучення:
переклад: багатоголосий закадровий
кодек: 2.0
бітрейт: 192 кб/с

Аудіо # 2:
мова: англійська
переклад: оригінал
кодек: 2.0
бітрейт: 192 кб/с
Info
General
Unique ID : 170381630985651389373428339804625567403 (0x802E4EFA701F096585AF2DD32AB1FEAB)
Complete name : D:\Films\Ink (2009) BDRip1080p [Ukr,Eng] [Hurtom].
Format :
Format version : Version 4 / Version 2
File size : 6.70 GiB
Duration : 1 h 46 min
Overall bit rate : 9 032 kb/s
Movie name : --SCHUMAHER--
Encoded date : UTC 2017-07-08 20:12:15
Writing application : mkvmerge v13.0.0 ('The Juggler') 64bit
Writing library : libebml v1.3.4 + libmatroska v1.4.5

Video
ID : 1
Format : AVC
Format/Info : Advanced Video Codec
Format profile : High@L4.1
Format settings, CABAC : Yes
Format settings, ReFrames : 4 frames
Codec ID : V_MPEG4/ISO/AVC
Duration : 1 h 46 min
Bit rate : 8 647 kb/s
Width : 1 920 pixels
Height : 1 080 pixels
Display aspect ratio : 16:9
Frame rate mode : Constant
Frame rate : 23.976 (24000/1001) FPS
Color space : YUV
Chroma subsampling : 4:2:0
Bit depth : 8 bits
Scan type : Progressive
Bits/(Pixel*Frame) : 0.174
Stream size : 6.42 GiB (96%)
Writing library : core 79 r1360 528c100
Encoding settings : cabac=1 / ref=4 / deblock=1:-1:-1 / analyse=0x3:0x113 / me=umh / subme=7 / psy=1 / psy_rd=1.0:0.0 / mixed_ref=1 / me_range=16 / chroma_me=1 / trellis=2 / 8x8dct=1 / cqm=0 / deadzone=21,11 / chroma_qp_offset=-2 / threads=6 / nr=0 / decimate=1 / mbaff=0 / constrained_intra=0 / bframes=3 / b_pyramid=0 / b_adapt=2 / b_bias=0 / direct=3 / wpredb=1 / wpredp=2 / keyint=250 / keyint_min=25 / scenecut=40 / rc_lookahead=40 / rc=2pass / mbtree=1 / bitrate=8647 / ratetol=1.0 / qcomp=0.60 / qpmin=10 / qpmax=51 / qpstep=4 / cplxblur=20.0 / qblur=0.5 / vbv_maxrate=50000 / vbv_bufsize=50000 / ip_ratio=1.40 / aq=1:1.00
Language : English
Default : Yes
Forced : No

Audio #1
ID : 2
Format : AC-3
Format/Info : Audio Coding 3
Mode extension : CM (complete main)
Format settings, Endianness : Big
Codec ID : A_AC3
Duration : 1 h 46 min
Bit rate mode : Constant
Bit rate : 192 kb/s
Channel(s) : 2 channels
Channel positions : Front: L R
Sampling rate : 48.0 kHz
Frame rate : 31.250 FPS (1536 spf)
Bit depth : 16 bits
Compression mode : Lossy
Stream size : 146 MiB (2%)
Default : Yes
Forced : No

Audio #2
ID : 3
Format : AC-3
Format/Info : Audio Coding 3
Mode extension : CM (complete main)
Format settings, Endianness : Big
Codec ID : A_AC3
Duration : 1 h 46 min
Bit rate mode : Constant
Bit rate : 192 kb/s
Channel(s) : 2 channels
Channel positions : Front: L R
Sampling rate : 48.0 kHz
Frame rate : 31.250 FPS (1536 spf)
Bit depth : 16 bits
Compression mode : Lossy
Stream size : 146 MiB (2%)
Language : English
Default : No
Forced : No
Скріншоти





Джерело: &
Особиста оцінка: 10 - без зайвих вагань рекомендую всім!


 Трекер:    Зареєстрований   

Завантажити / скачати фільм українською



відео для новачків



 Зареєстрований:   2017-07-09 16:16
 Розмір:   6.7 GB 
 Оцінка фільму:   8/10 (Голосів: 4)
   
Інші релізи
   Інк / Ink (2009) Ukr/Eng Zetonik-z  14 / 0   1.37 GB   2011-11-18 18:16 
vsenkiv 
Новенький


З нами з: 09.10.15
Востаннє: 06.10.17
Повідомлень: 8

2017-07-09 16:48  
як фільм? можна дивитись із сином?
Оператор 
Поважний учасник


З нами з: 02.06.09
Востаннє: 20.10.17
Повідомлень: 173

2017-07-09 20:24  
vsenkiv
Шикарний фільм! Знято за копійки, але дуже талановитою людиною

Додано через 1 хвилину 6 секунд:

До речі, а буде переклад останнього фільму Джаміна Вінанса "Frame" (2014)

poolvetrum 
Поважний учасник


З нами з: 01.06.14
Востаннє: 20.10.17
Повідомлень: 246

2017-07-10 15:30  
З появою гарної якості, спробував подужати фільм вдруге. Був прогрес - на цей раз я подивився його десь 30 хвилин, замість тодішніх 5-10. Мушу сказати, що шикарність цього фільму надто переоцінена. Безперечно, свого невибагливого глядача фільм знайде, але я явно не серед них.
IronBee 
Свій


З нами з: 08.02.10
Востаннє: 19.10.17
Повідомлень: 72

2017-07-12 21:28  
Фільм супер, але як завжди кожному своє)
Maters 
VIP


З нами з: 27.03.12
Востаннє: 20.10.17
Повідомлень: 1327

2017-07-15 12:27  
Мені не пішов ((
Ваш часовий пояс: GMT + 2 Години

Нова тема   Відповісти