Не ті хлопці / The Wrong Mans (Сезон 1) (2013) 720p Ukr/Eng | sub Eng

Нові коментарі

Нова тема   Відповісти
Автор Повідомлення
sergiyko.5 
Забанено
Забанено


З нами з: 25.02.16
Востаннє: 29.10.20
Повідомлень: 3650

2017-07-09 12:16  
Не ті хлопці / The Wrong Mans (Сезон 1) (2013) 720p Ukr/Eng | sub Eng

Не ті хлопці / The Wrong Mans (Сезон 1) (2013) 720p Ukr/Eng | sub Eng

Жанр: комедія, кримінал
Країна: Велика Британія
Кінокомпанія: BBC
Режисер: Джим Філд Сміт
Актори: Метью Бейнтон, Джеймс Корден, Сара Солемані, Том Басден, Емілія Фокс, Дон Френч, Пол Коулі, Джордан Лонг, Девід Колдер, Стівен Кемпбелл Мур

Сюжет:
Це не ті хлопці, які подобаються дівчатам. Чи не ті хлопці, з якими варто йти в розвідку. Чи не ті хлопці, які можуть врятувати світ. Це взагалі не ті хлопці. Два офісних хлюпика помилково відповідають на дзвінок по чужому телефону і виявляються в центрі міжнародної змови. Але тепер вже їм доведеться стати героями. Обережно - чорний британський офісний гумор!




Тривалість: 1 серія: 29:00 (цілком серій: 6)
Якість:

Відео: кодек: розмір кадру: 1280 х 720 бітрейт: 5500 кб/с
Аудіо # 1: мова: українська переклад: багатоголосий закадровий кодек: 2.0 бітрейт: 192 кб/с
Джерело озвучення:
Аудіо # 2: мова: англійська переклад: оригінал кодек: 2.0 бітрейт: 192 кб/с
Аудіо # 3: мова: англійська переклад: коментар кодек: 2.0 бітрейт: 224 кб/с
Субтитри : мова: англійська тип: програмні (м'які) формат: *.srt
Перелік серій:
01 The Wrong Mans
02 Bad Mans
03 Dead Mans
04 Inside Mans
05 Wanted Mans
06 Running Mans
Про файл:
General
Unique ID : 197966188624831361852008167827194225547 (0x94EEE6AC301439ACBA94916E9DEFA38B)
Complete name : E:\FILMS\The Wrong Mans 720p \The Wrong Mans S01 720p \The.Wrong.Mans.S01E01..720p.Ukr.Eng.
Format :
Format version : Version 4 / Version 2
File size : 1.24 GiB
Duration : 29 min 5 s
Overall bit rate : 6 110 kb/s
Movie name : The Wrong Mans S01 720p by sergiyko
Encoded date : UTC 2017-07-15 17:34:58
Writing application : v13.0.0 ('The Juggler') 64bit
Writing library : libebml v1.3.4 + v1.4.5

Video
ID : 1
Format : AVC
Format/Info : Advanced Video Codec
Format profile : [email protected]
Format settings, CABAC : Yes
Format settings, RefFrames : 9 frames
Codec ID : V_MPEG4/ISO/AVC
Duration : 29 min 5 s
Bit rate : 5 500 kb/s
Width : 1 280 pixels
Height : 720 pixels
Display aspect ratio : 16:9
Frame rate mode : Constant
Frame rate : 25.000 FPS
Color space : YUV
Chroma subsampling : 4:2:0
Bit depth : 8 bits
Scan type : Progressive
Bits/(Pixel*Frame) : 0.239
Stream size : 1.12 GiB (90%)
Title : S01E01 The Wrong Mans
Writing library : core 142 r2389kMod 956c8d8
Encoding settings : cabac=1 / ref=9 / deblock=1:-3:-3 / analyse=0x3:0x113 / me=umh / subme=11 / psy=1 / fade_compensate=0.00 / psy_rd=1.00:0.00 / mixed_ref=1 / me_range=32 / chroma_me=1 / trellis=2 / 8x8dct=1 / cqm=0 / deadzone=21,11 / fast_pskip=0 / chroma_qp_offset=-3 / threads=12 / lookahead_threads=2 / sliced_threads=0 / nr=0 / decimate=1 / interlaced=0 / bluray_compat=0 / constrained_intra=0 / fgo=0 / bframes=9 / b_pyramid=2 / b_adapt=2 / b_bias=0 / direct=1 / weightb=1 / open_gop=0 / weightp=2 / keyint=240 / keyint_min=24 / scenecut=40 / intra_refresh=0 / rc_lookahead=40 / rc=2pass / mbtree=0 / bitrate=5500 / ratetol=1.0 / qcomp=0.65 / qpmin=0 / qpmax=69 / qpstep=4 / cplxblur=20.0 / qblur=0.5 / vbv_maxrate=50000 / vbv_bufsize=62500 / nal_hrd=none / filler=0 / ip_ratio=1.40 / pb_ratio=1.30 / aq=3:0.85
Language : English
Default : Yes
Forced : No

Audio #1
ID : 2
Format : AC-3
Format/Info : Audio Coding 3
Format settings, Endianness : Big
Codec ID : A_AC3
Duration : 29 min 2 s
Bit rate mode : Constant
Bit rate : 192 kb/s
Channel(s) : 2 channels
Channel positions : Front: L R
Sampling rate : 48.0 kHz
Frame rate : 31.250 FPS (1536 SPF)
Bit depth : 16 bits
Compression mode : Lossy
Stream size : 39.9 MiB (3%)
Title : MOV | NLO TV
Language : Ukrainian
Service kind : Complete Main
Default : Yes
Forced : Yes

Audio #2
ID : 3
Format : AC-3
Format/Info : Audio Coding 3
Format settings, Endianness : Big
Codec ID : A_AC3
Duration : 29 min 2 s
Bit rate mode : Constant
Bit rate : 192 kb/s
Channel(s) : 2 channels
Channel positions : Front: L R
Sampling rate : 48.0 kHz
Frame rate : 31.250 FPS (1536 SPF)
Bit depth : 16 bits
Compression mode : Lossy
Stream size : 39.9 MiB (3%)
Title : Original
Language : English
Service kind : Complete Main
Default : No
Forced : No

Audio #3
ID : 4
Format : AC-3
Format/Info : Audio Coding 3
Format settings, Endianness : Big
Codec ID : A_AC3
Duration : 29 min 5 s
Bit rate mode : Constant
Bit rate : 224 kb/s
Channel(s) : 2 channels
Channel positions : Front: L R
Sampling rate : 48.0 kHz
Frame rate : 31.250 FPS (1536 SPF)
Bit depth : 16 bits
Compression mode : Lossy
Stream size : 46.6 MiB (4%)
Title : Commentary
Language : English
Service kind : Complete Main
Default : No
Forced : No

Text
ID : 5
Format : UTF-8
Codec ID : S_TEXT/UTF8
Codec ID/Info : UTF-8 Plain Text
Duration : 28 min 10 s
Bit rate : 87 b/s
Count of elements : 512
Stream size : 18.0 KiB (0%)
Title : SDH
Language : English
Default : No
Forced : No

Menu
00:00:00.000 : en:00:00:00.000
00:05:16.240 : en:00:05:16.240
00:12:35.640 : en:00:12:35.640
00:20:12.200 : en:00:20:12.200
Скріншоти:


Додаткова інформація:
01. На початку другої серії (превью першої) та в кінці першої (анонс другої) є неперекладені моменти, так в не повному обсязі показав телеканал.
02. Щодо чорних смуг в кадрі, так зроблено виробником серіалу.



Бронзовий реліз (на рейтинг впливає 75% завантаженого)
 Трекер:    Зареєстрований   

Завантажити / скачати серіал українською



відео для новачків



 Зареєстрований:   2017-07-23 14:49
 Розмір:   7.44 GB 
 Оцінка серіалу:   8.9/10 (Голосів: 19)
   
Влад Гук 
Частий відвідувач


З нами з: 06.07.13
Востаннє: 18.07.20
Повідомлень: 44

2017-07-09 13:34  
Ого, я шанувальник шоу "The Late Late Show with James Corden") Не знав що він знявся в серіалі, треба буде зацінити.
sergiyko.5 
Забанено
Забанено


З нами з: 25.02.16
Востаннє: 29.10.20
Повідомлень: 3650

2017-07-13 09:14  
А що зі статусом реліза, чому досі "Очікується перевірка"?
Konfucius 
Управління
Управління


З нами з: 30.09.07
Востаннє: 30.11.20
Повідомлень: 5214

2017-07-15 16:14  
Добавте Info.
Electroz 
Відео Гуртом - підтримка та поширення
Відео Гуртом - підтримка та поширення


З нами з: 18.09.14
Востаннє: 04.12.20
Повідомлень: 4221

2017-07-15 16:17  
Konfucius написано:
Добавте Info.

Під спойлером "Про файл".

sergiyko.5 
Забанено
Забанено


З нами з: 25.02.16
Востаннє: 29.10.20
Повідомлень: 3650

2017-07-15 20:00  
Додав 3,4 серії, замінив 1,2. Епізоди тепер мають доріжку коментарів і субтитрів англійською, для шанувальників.
sergiyko.5 
Забанено
Забанено


З нами з: 25.02.16
Востаннє: 29.10.20
Повідомлень: 3650

2017-07-23 14:49  
Додав 5 та 6 серії. Сезон повний.
sergiyko.5 
Забанено
Забанено


З нами з: 25.02.16
Востаннє: 29.10.20
Повідомлень: 3650

2017-07-29 19:25  
Зробив Сезон 2 https://toloka.to/t83198
_Alex_UA 
Поважний учасник


З нами з: 18.07.12
Востаннє: 20.11.20
Повідомлень: 170

2019-12-18 20:34  
Чудовий серіал! Переглянув на одному диханні! Таки є щось, що відрізняє британськиу гумор від американського і французького! 10 з 10!
Ваш часовий пояс: GMT + 2 Години

Нова тема   Відповісти