Сфера / The Circle (2017) 720p Ukr/Eng | Sub Eng

Нові коментарі

Нова тема   Відповісти
Автор Повідомлення
Anonymous 







2017-07-08 13:04  
Сфера / The Circle (2017) 720p Ukr/Eng | Sub Eng

Сфера / The Circle (2017) 720p Ukr/Eng | Sub Eng


Жанр: драма, трилер, фантастика
Країна: США, ОАЕ



Кінокомпанія: EuropaCorp, Imagenation Abu Dhabi FZ, Likely Story, Parkes+MacDonald Image Nation, Playtone, Route One Entertainment
Режисер: Джеймс Понсольдт / James Ponsoldt
Актори: Ема Вотсон / Emma Watson, Том Генкс / Tom Hanks, Карен Ґіллан / Karen Gillan, Джон Боєґа / John Boyega, Білл Пекстон / Bill Paxton, Еллен Вонґ / Ellen Wong, Паттон Освальт / Patton Oswalt, Еллар Колтрейн / Ellar Coltrane, Пурна Джаґаннатан / Poorna Jagannathan, Ґлен Гедлі / Glenne Headly та інші

Сюжет:
Недалеке майбутнє. Молода дівчина Мей проходить співбесіду, щоб потрапити у всесвітньовідому компанію "Сфера" на чолі з Еймоном Бейлі. Дівчина отримує роботу і має можливість стати частиною глобального експерименту, результати якого перевернуть весь світ. Компанія введе в одну систему всі дані про своїх користувачів, включаючи соціальні мережі, пошту, банківські рахунки й багато іншого. Згодом Мей розуміє, що метою "Сфери" є точно не поліпшення життя звичайних людей. Дівчина повинна врятувати все людство від мимовільного рабства.
Офіційний український трейлер:


Рейтинг MPAA: PG-13 - дітям до 13 років перегляд не бажаний
Вікова категорія: 12+
Тривалість: 01:49:47
Якість: 720p
Відео:
кодек:
розмір кадру: 1280 х 534
бітрейт: 6000 кб/с

Аудіо:
мова: українська
переклад: професійний дубльований
кодек: 2.0
бітрейт: 192 кб/с

Аудіо # 2:
мова: англійська
переклад: оригінал
кодек: 5.1
бітрейт: 640 кб/с

Субтитри # 1-2:
мова: англійська (повні, SDH)
тип: програмні (м'які)
формат: *.srt
Info
Код:
Complete name               : The Circle (2017) [Ukr,Eng sub.Eng] 720p [Hurtom].
Format                      :
Format version              : Version 4 / Version 2
File size                   : 5.24 GiB
Duration                    : 1 h 49 min
Overall bit rate            : 6 830 kb/s
Movie name                  : Сфера / The Circle (2017) [Ukr,Eng sub.Eng] 720p [Hurtom]
Released date               : 2017
Cover                       : Yes
Comment                     : http://www.imdb.com/title/tt4287320/
Attachments                 : cover.jpg
ARTIST                      : Ема Вотсон / Emma Watson, Том Генкс / Tom Hanks, Карен Ґіллан / Karen Gillan, Джон Боєґа / John Boyega, Білл Пекстон / Bill Paxton, Еллен Вонґ / Ellen Wong, Паттон Освальт / Patton Oswalt, Еллар Колтрейн / Ellar Coltrane, Пурна Джаґаннатан / Poorna Jagannathan, Ґлен Гедлі / Glenne Headly та інші
DIRECTOR                    : Джеймс Понсольдт / James Ponsoldt
GENRE                       : драма, трилер, фантастика
SYNOPSIS                    : Недалеке майбутнє. Молода дівчина Мей проходить співбесіду, щоб потрапити у всесвітньовідому компанію "Сфера" на чолі з Еймоном Бейлі. Дівчина отримує роботу і має можливість стати частиною глобального експерименту, результати якого перевернуть весь світ. Компанія введе в одну систему всі дані про своїх користувачів, включаючи соціальні мережі, пошту, банківські рахунки й багато іншого. Згодом Мей розуміє, що метою "Сфери" є точно не поліпшення життя звичайних людей. Дівчина повинна врятувати все людство від мимовільного рабства.
Url                         : https://toloka.to/t82777

Video
ID                          : 1
Format                      : AVC
Format/Info                 : Advanced Video Codec
Format profile              : High@L4.1
Format settings, CABAC      : Yes
Format settings, RefFrames  : 12 frames
Codec ID                    : V_MPEG4/ISO/AVC
Duration                    : 1 h 49 min
Bit rate                    : 6 000 kb/s
Width                       : 1 280 pixels
Height                      : 534 pixels
Display aspect ratio        : 2.40:1
Frame rate mode             : Constant
Frame rate                  : 23.976 (24000/1001) FPS
Color space                 : YUV
Chroma subsampling          : 4:2:0
Bit depth                   : 8 bits
Scan type                   : Progressive
Bits/(Pixel*Frame)          : 0.366
Stream size                 : 4.60 GiB (88%)
Title                       : Сфера / The Circle (2017) 720p
Writing library             : core 148 r2665kMod a01e339
Encoding settings           : cabac=1 / ref=12 / deblock=1:-3:-3 / analyse=0x3:0x133 / me=umh / subme=11 / psy=1 / fade_compensate=0.00 / psy_rd=1.05:0.00 / mixed_ref=1 / me_range=32 / chroma_me=1 / trellis=2 / 8x8dct=1 / cqm=0 / deadzone=21,11 / fast_pskip=0 / chroma_qp_offset=-2 / threads=17 / lookahead_threads=2 / sliced_threads=0 / nr=0 / decimate=0 / interlaced=0 / bluray_compat=0 / constrained_intra=0 / fgo=0 / bframes=8 / b_pyramid=2 / b_adapt=2 / b_bias=0 / direct=3 / weightb=1 / open_gop=0 / weightp=2 / keyint=240 / keyint_min=24 / scenecut=40 / intra_refresh=0 / rc=2pass / mbtree=0 / bitrate=6000 / ratetol=1.0 / qcomp=0.70 / qpmin=0 / qpmax=69 / qpstep=4 / cplxblur=20.0 / qblur=0.5 / ip_ratio=1.20 / pb_ratio=1.20 / aq=3:0.85
Language                    : English
Default                     : Yes
Forced                      : No

Audio #1
ID                          : 2
Format                      : AC-3
Format/Info                 : Audio Coding 3
Format settings, Endianness : Big
Codec ID                    : A_AC3
Duration                    : 1 h 49 min
Bit rate mode               : Constant
Bit rate                    : 192 kb/s
Channel(s)                  : 2 channels
Channel positions           : Front: L R
Sampling rate               : 48.0 kHz
Frame rate                  : 31.250 FPS (1536 SPF)
Bit depth                   : 16 bits
Compression mode            : Lossy
Stream size                 : 151 MiB (3%)
Title                       : Dub [Line] 2.0 192 Kbps [Hurtom-Covenant]
Language                    : Ukrainian
Service kind                : Complete Main
Default                     : Yes
Forced                      : Yes

Audio #2
ID                          : 3
Format                      : AC-3
Format/Info                 : Audio Coding 3
Format settings, Endianness : Big
Codec ID                    : A_AC3
Duration                    : 1 h 49 min
Bit rate mode               : Constant
Bit rate                    : 640 kb/s
Channel(s)                  : 6 channels
Channel positions           : Front: L C R, Side: L R, LFE
Sampling rate               : 48.0 kHz
Frame rate                  : 31.250 FPS (1536 SPF)
Bit depth                   : 16 bits
Compression mode            : Lossy
Stream size                 : 503 MiB (9%)
Title                       : Original, 5.1 640 Kbps
Language                    : English
Service kind                : Complete Main
Default                     : No
Forced                      : No

Text #1
ID                          : 4
Format                      : UTF-8
Codec ID                    : S_TEXT/UTF8
Codec ID/Info               : UTF-8 Plain Text
Duration                    : 1 h 43 min
Bit rate                    : 71 b/s
Count of elements           : 1513
Stream size                 : 53.8 KiB (0%)
Title                       : Eng full
Language                    : English
Default                     : No
Forced                      : No

Text #2
ID                          : 5
Format                      : UTF-8
Codec ID                    : S_TEXT/UTF8
Codec ID/Info               : UTF-8 Plain Text
Duration                    : 1 h 46 min
Bit rate                    : 70 b/s
Count of elements           : 1602
Stream size                 : 55.1 KiB (0%)
Title                       : Eng SDH
Language                    : English
Default                     : No
Forced                      : No

Menu
00:00:00.000                : en:00:00:00.000
00:06:04.322                : en:00:06:04.322
00:11:53.004                : en:00:11:53.004
00:19:04.977                : en:00:19:04.977
00:26:58.534                : en:00:26:58.534
00:32:36.037                : en:00:32:36.037
00:39:19.440                : en:00:39:19.440
00:46:00.341                : en:00:46:00.341
00:51:28.252                : en:00:51:28.252
00:59:33.236                : en:00:59:33.236
01:07:45.561                : en:01:07:45.561
01:14:28.214                : en:01:14:28.214
01:24:31.900                : en:01:24:31.900
01:31:28.233                : en:01:31:28.233
01:34:59.527                : en:01:34:59.527
01:40:35.571                : en:01:40:35.571


Джерело: &
Подяка за український звук Covenant


 Трекер:    Зареєстрований   

Завантажити / скачати фільм українською



відео для новачків



 Зареєстрований:   2017-08-05 17:10
 Розмір:   5.24 GB 
 Оцінка фільму:   7/10 (Голосів: 59)
   
Інші релізи
   Сфера / The Circle (2017) 1080p Ukr/Eng | Sub Eng igor911  22 / 1   11.64 GB   2017-08-05 18:09 
   Сфера / The Circle (2017) Covenant  32 / 4   1.45 GB   2017-08-01 22:05 
   Сфера / The Circle (2017) AVC Ukr/Eng | Sub Eng vovikmar  15 / 0   2.3 GB   2017-07-26 00:12 
Petro58 
Новенький


З нами з: 24.06.17
Востаннє: 20.10.17
Повідомлень: 2

2017-07-09 09:31  
Дякую!
Anonymous 







2017-07-09 10:17  
Petro58, для подяк є кнопка "Дякую" в блоці завантаження.

morfst 
Частий відвідувач


З нами з: 31.05.14
Востаннє: 22.10.17
Повідомлень: 37

2017-07-09 14:18  
Дякую
casper101 
Поважний учасник


З нами з: 03.12.09
Востаннє: 20.10.17
Повідомлень: 232

2017-07-26 18:55  
є кадри з майдану
Anonymous 







2017-08-05 17:13  
Реліз оновлено, відеоряд замінено на .
золото на тиждень

Alex_Shumway 
Новенький


З нами з: 10.07.16
Востаннє: 21.10.17
Повідомлень: 13

2017-08-25 11:55  
Це саме те майбутнє, яке вже поряд.
Актуальний фільм... особливо для тих, хто не полюбляє світити своє приватне життя в інтернеті.
Але залишилось відчуття його незакінченості

OlehH2012 
Новенький


З нами з: 07.09.12
Востаннє: 21.10.17
Повідомлень: 13

2017-09-23 22:46  
Класний фільм за класною книгою
Ваш часовий пояс: GMT + 2 Години

Нова тема   Відповісти