Христофор Колумб (Сезон 1) / Christoper Columbus (1992) AVC

Нові коментарі

Нова тема   Відповісти
Автор Повідомлення
kirovetz 
Частий відвідувач


З нами з: 16.10.11
Востаннє: 20.10.17
Повідомлень: 44

2017-07-08 12:08  
Христофор Колумб (Сезон 1) / Christoper Columbus (1992) AVC

Христофор Колумб (Сезон 1) / Christoper Columbus (1992) AVC


Жанр: пригоди, історія, драма
Композитор:
Коічіро Камеяма (Koichiro Kameyama)




Автори сценарію та текстів, діалогів:
Мігель Херберг (Miguel Herberg), Нобуюкі Фуджімото (Nobuyuki Fujimoto), Рюза Наканіші (Ryuza Nakanishi)

Сюжет:
Біографічний серіал про життя великого іспанського мореплавця Христофора Колумба - від його юнацьких років до другої подорожі в Америку.


Тривалість: 1 серія: 23:00 (цілком серій: 26)
Перелік серій
1.Колумб піднімає вітрила.
2.Перше плавання.
3.Джованні ризикує життям.
4.В Атлантику.
5.Рішення в Португалії.
6.Слава знанням.
7.Перше плавання.
8.Таємниця віддаленної землі.
9.Одруження.
10.Колумб вирішує здійснити подорож на захід.
11.Перша перешкода.
12.Нетерпіння.
13.Рука допомоги.
14.Аудієнція з королем.
15.Відкриття мису Доброї Надії.
16.Кінець реконкісти.
17.Господнє випробування.
18.План затверджено.
19.Чудо Пінос Пуерте.
20.Флотилія відправляється у плавання.
21.Брати Пінзони.
22.Землю відкрито.
23.Пінзон протидіє.
24.У пошуках золота.
25.Король знімає обмеження.
26.Тріумфальне повернення.
скріншоти









media info
Video
ID : 1
Format : AVC
Format/Info : Advanced Video Codec
Format profile : [email protected]
Format settings, CABAC : Yes
Format settings, ReFrames : 5 frames
Codec ID : V_MPEG4/ISO/AVC
Duration : 23 min
Bit rate : 1 900 kb/s
Width : 720 pixels
Height : 576 pixels
Display aspect ratio : 5:4
Frame rate mode : Constant
Frame rate : 25.000 FPS
Standard : PAL
Color space : YUV
Chroma subsampling : 4:2:0
Bit depth : 8 bits
Scan type : Progressive
Bits/(Pixel*Frame) : 0.183
Stream size : 314 MiB (89%)
Writing library : core 152 r2851M ba24899
Encoding settings : cabac=1 / ref=6 / deblock=1:-1:-1 / analyse=0x3:0x133 / me=hex / subme=7 / psy=1 / psy_rd=1.00:0.20 / mixed_ref=1 / me_range=16 / chroma_me=1 / trellis=1 / 8x8dct=1 / cqm=0 / deadzone=21,11 / fast_pskip=1 / chroma_qp_offset=-3 / threads=6 / lookahead_threads=1 / sliced_threads=0 / nr=0 / decimate=1 / interlaced=fake / bluray_compat=1 / constrained_intra=0 / bframes=3 / b_pyramid=1 / b_adapt=2 / b_bias=0 / direct=3 / weightb=1 / open_gop=0 / weightp=1 / keyint=250 / keyint_min=1 / scenecut=40 / intra_refresh=0 / rc_lookahead=40 / rc=2pass / mbtree=1 / bitrate=1900 / ratetol=1.0 / qcomp=0.60 / qpmin=0 / qpmax=69 / qpstep=4 / cplxblur=20.0 / qblur=0.5 / ip_ratio=1.40 / aq=1:1.00
Default : Yes
Forced : No
Color range : Limited
Matrix coefficients : BT.601
DURATION : 00:23:31.800000000

Audio
ID : 2
Format : AC-3
Format/Info : Audio Coding 3
Mode extension : CM (complete main)
Format settings, Endianness : Big
Codec ID : A_AC3
Duration : 23 min
Bit rate mode : Constant
Bit rate : 192 kb/s
Channel(s) : 2 channels
Channel positions : Front: L R
Sampling rate : 48.0 kHz
Frame rate : 31.250 FPS (1536 spf)
Bit depth : 16 bits
Compression mode : Lossy
Stream size : 32.3 MiB (9%)
Default : Yes
Forced : No
DURATION : 00:23:31.840000000
Ріп робив з цієї теми
https://toloka.to/t42097
Якість:
Відео:
кодек:
розмір кадру: 720 х 576
бітрейт: 1900 кб/с

Аудіо:
мова: українська
переклад: багатоголосий закадровий
кодек: 2.0
бітрейт: 192 кб/с

Джерело озвучення: Христофор Колумб (Сезон 1) / Christoper Columbus (1992) AVC


Срібний реліз (на рейтинг впливає 50% завантаженого)
 Трекер:    Зареєстрований   

Завантажити / скачати мультфільм українською



відео для новачків



 Зареєстрований:   2017-07-08 13:05
 Розмір:   8.96 GB 
 Оцінка мультсеріалу:   10/10 (Голосів: 1)
   
igor911 
Відео Гуртом
Відео Гуртом


З нами з: 18.01.08
Востаннє: 21.10.17
Повідомлень: 7937

2017-07-08 12:20  
kirovetz, зроби двозначну нумерацію серій, бо на програвачах після 1ї серії йтиме 20а.
kirovetz 
Частий відвідувач


З нами з: 16.10.11
Востаннє: 20.10.17
Повідомлень: 44

2017-07-08 12:24  
зробив
igor911 
Відео Гуртом
Відео Гуртом


З нами з: 18.01.08
Востаннє: 21.10.17
Повідомлень: 7937

2017-07-08 12:25  
також оформи за правилами відео https://toloka.to/t201, додай кнопку імдб http://www.imdb.com/title/tt5304494/, акторів, студії, режисера, джерело озвучення і т.д.

Додано через 33 секунди:

kirovetz написано:
зробив

треба замінити торрент

11FrYkT 
Модератор відео


З нами з: 20.02.11
Востаннє: 21.10.17
Повідомлень: 3973

2017-07-08 12:33  
kirovetz, також в заголовку вкажіть кількість серій з скількох і додайте обкладинку
Ваш часовий пояс: GMT + 2 Години

Нова тема   Відповісти